<?xml version="1.0" standalone="no"?>
<!DOCTYPE svg PUBLIC "-//W3C//DTD SVG 1.1//EN" "http://www.w3.org/Graphics/SVG/1.1/DTD/svg11.dtd" >
<!--
2013-9-30: Created.
-->
<svg>
<metadata>
Created by iconfont
</metadata>
<defs>

<font id="iconfont" horiz-adv-x="1024" >
  <font-face
    font-family="iconfont"
    font-weight="500"
    font-stretch="normal"
    units-per-em="1024"
    ascent="896"
    descent="-128"
  />
    <missing-glyph />
    
    <glyph glyph-name="weixin_circle" unicode="&#58972;" d="M579.867 384.068c-11.67 0-23.344-10.837-23.344-24.178 0-10.839 11.668-21.678 23.344-21.678 17.514 0 30.02 10.839 30.02 21.678 0 13.34-12.505 24.178-30.02 24.178v0zM503.154 496.64c18.345 0 30.02 11.67 30.02 29.185 0 18.345-11.675 29.183-30.02 29.183-17.51 0-34.188-10.839-34.188-29.183-0.001-17.517 16.678-29.185 34.188-29.185v0zM512.326 895.44c-282.655 0-511.788-229.133-511.788-511.788 0-282.653 229.133-511.786 511.788-511.786 282.653 0 511.786 229.133 511.786 511.786 0.001 282.655-229.132 511.788-511.786 511.788v0zM415.602 253.99099999999999c-30.855 0-53.369 4.999-82.553 13.341l-84.218-42.53 24.186 71.715c-59.204 41.689-94.228 94.221-94.228 158.428 0 113.403 106.733 200.123 236.814 200.123 115.069 0 217.633-68.377 237.644-165.106-8.338 1.671-15.844 2.502-22.514 2.502-113.403 0-200.954-85.049-200.954-187.613 0-17.508 2.502-33.351 6.671-50.03-6.671-0.829-14.178-0.829-20.849-0.829v0zM763.314 172.27599999999995l16.674-60.041-63.371 35.854c-24.18-4.999-47.529-12.505-71.709-12.505-111.737 0-200.123 76.711-200.123 171.769 0 95.058 88.388 171.771 200.123 171.771 105.895 0 200.954-76.713 200.954-171.771 0-53.362-35.854-100.891-82.548-135.078v0zM338.053 555.008c-17.51 0-35.854-10.839-35.854-29.183 0-17.516 18.343-29.19 35.854-29.19 16.679 0 30.02 11.675 30.02 29.19 0 18.343-13.341 29.183-30.02 29.183v0zM710.783 384.068c-12.51 0-23.349-10.837-23.349-24.178 0-10.839 10.839-21.678 23.349-21.678 16.674 0 29.183 10.839 29.183 21.678 0 13.34-12.509 24.178-29.183 24.178v0zM710.783 384.068z"  horiz-adv-x="1024" />

    
    <glyph glyph-name="sign_qq" unicode="&#58935;" d="M512 896c282.768 0 512-229.232 512-512 0-282.768-229.232-512-512-512C229.232-128 0 101.23199999999997 0 384 0 666.768 229.232 896 512 896z m5.328-240.064c-96 2.72-173.328-73.44-176-171.344v-54.4S272 258.88 272 237.12c0-35.36 10.672-35.36 21.328-24.48l45.344 46.24v-10.88A169.488 169.488 0 0 1 384 158.22400000000005c-21.328-10.88-56-24.48-56-46.224h368c0 24.48-34.672 35.36-58.672 46.24 26.672 21.76 42.672 54.4 45.344 89.744v13.6s10.656-13.6 45.328-46.24c13.328-13.6 24-13.6 24 21.76 0 20.976-64.48 181.04-69.072 192.448l-0.256 0.64v57.12C680 579.7919999999999 608 653.216 517.328 655.936z"  horiz-adv-x="1024" />

    
    <glyph glyph-name="shanchu" unicode="&#58919;" d="M733.855 104.055c0-26.574-21.63-48.203-48.202-48.203H338.347c-26.573 0-48.202 21.63-48.202 48.203V615.743h443.71v-511.688zM386.55 702.26c0 5.562 4.326 9.888 9.888 9.888H628.18c5.562 0 9.888-4.326 9.888-9.888v-29.045H386.55V702.26z m491.913-29.045H695.54V702.26c0 37.08-30.28 67.36-67.36 67.36H396.438c-37.08 0-67.36-30.28-67.36-67.36v-29.045h-183.54c-16.068 0-29.046-12.978-29.046-29.045s12.978-29.045 29.045-29.045h86.518v-511.07c0-58.709 47.584-106.293 106.292-106.293h347.306c58.708 0 106.292 47.584 106.292 106.293V615.743h86.518c16.067 0 29.045 12.977 29.045 29.045s-12.978 28.427-29.045 28.427zM512 142.987c16.068 0 29.045 12.978 29.045 29.046v308.99c0 16.068-12.977 29.045-29.045 29.045s-29.045-12.977-29.045-29.045v-308.99c0-16.068 12.977-29.046 29.045-29.046m-135.338 0c16.068 0 29.045 12.978 29.045 29.046v308.99c0 16.068-12.977 29.045-29.045 29.045s-29.045-12.977-29.045-29.045v-308.99c0.618-16.068 13.596-29.046 29.045-29.046m270.676 0c16.067 0 29.045 12.978 29.045 29.046v308.99c0 16.068-12.978 29.045-29.045 29.045s-29.045-12.977-29.045-29.045v-308.99c0-16.068 12.977-29.046 29.045-29.046"  horiz-adv-x="1024" />

    
    <glyph glyph-name="zhangben" unicode="&#58914;" d="M901.468389 747.685205 183.123031 747.685205l0-119.354342-87.321272 0c-16.413481 0-32.040007-11.663644-32.040007-28.077475l0-59.677171c0-16.45681 15.626526-31.600719 32.040007-31.600719l87.321272 0 0-59.676148-87.321272 0c-16.413481 0-32.040007-11.686157-32.040007-28.077475l0-59.677171c0-16.435321 15.626526-31.599695 32.040007-31.599695l87.321272 0 0-59.655681-87.321272 0c-16.413481 0-32.040007-11.706623-32.040007-28.119431l0-59.678194c0-16.368806 15.626526-31.55467 32.040007-31.55467l87.321272 0 0-59.677171-87.321272 0c-16.413481 0-32.040007-11.707646-32.040007-28.098965l0-59.699684c0-16.391319 15.626526-31.55774 32.040007-31.55774l87.321272 0 0-119.353318 718.345358 0c32.958973 0 57.424157 28.469402 57.424157 61.428048L958.892545 689.737422C958.892545 722.716534 934.382334 747.685205 901.468389 747.685205M362.140389-87.773697 242.780133-87.773697l0 59.676148 32.038983 0c16.414504 0 27.662123 15.166421 27.662123 31.55774l0 59.699684c0 16.391319-11.247619 28.098965-27.662123 28.098965l-32.038983 0 0 59.677171 32.038983 0c16.414504 0 27.662123 15.143908 27.662123 31.55467L302.481239 242.168874c0 16.412808-11.247619 28.119431-27.662123 28.119431l-32.038983 0 0 59.655681 32.038983 0c16.414504 0 27.662123 15.165398 27.662123 31.578206l0 59.678194c0 16.412808-11.247619 28.097942-27.662123 28.097942l-32.038983 0 0 59.676148 32.038983 0c16.414504 0 27.662123 15.143908 27.662123 31.579229l0 59.655681c0 16.45681-11.247619 28.120454-27.662123 28.120454l-32.038983 0 0 59.654658 119.360256 0L362.140389-87.773697z"  horiz-adv-x="1024" />

    
    <glyph glyph-name="bianji1" unicode="&#58915;" d="M995.51004445 587.88977778c-26.2144 64.07964445-64.07964445 122.33386667-113.59573334 168.93724444-49.51608889 49.51608889-107.77031111 87.38133333-168.93724444 113.59573333-64.07964445 26.2144-131.072 40.77795555-200.97706667 40.77795556s-136.89742222-14.56355555-200.97706667-40.77795556c-64.07964445-26.2144-119.42115555-64.07964445-168.93724444-113.59573333-49.51608889-49.51608889-87.38133333-107.77031111-113.59573334-168.93724444-26.2144-64.07964445-40.77795555-131.072-40.77795555-200.97706667 0-69.90506667 14.56355555-136.89742222 40.77795555-200.97706666 26.2144-64.07964445 64.07964445-122.33386667 113.59573334-168.93724445 49.51608889-49.51608889 107.77031111-87.38133333 168.93724444-113.59573333 64.07964445-26.2144 131.072-40.77795555 200.97706667-40.77795556s136.89742222 14.56355555 200.97706667 40.77795556c64.07964445 26.2144 122.33386667 64.07964445 168.93724444 113.59573333 49.51608889 49.51608889 87.38133333 107.77031111 113.59573334 168.93724445 26.2144 64.07964445 40.77795555 131.072 40.77795555 200.97706666 0 69.90506667-14.56355555 136.89742222-40.77795555 200.97706667z m-183.5008-107.77031111L541.12711111 209.23733332999996c-5.82542222-5.82542222-11.65084445-5.82542222-17.47626666-5.82542222s-11.65084445 0-14.56355556 5.82542222c-8.73813333 8.73813333-8.73813333 23.30168889 0 32.03982222l270.88213333 270.88213334c5.82542222 5.82542222 8.73813333 14.56355555 8.73813333 26.2144s-5.82542222 23.30168889-11.65084444 32.03982222l-128.15928889 128.15928889c-14.56355555 14.56355555-34.95253333 5.82542222-46.60337777-8.73813333l-259.2312889-259.23128889-69.90506666-69.90506667-26.2144-198.06435556 180.58808889 29.12711112-101.94488889 104.8576c-8.73813333 8.73813333-8.73813333 23.30168889 0 32.03982222 8.73813333 8.73813333 23.30168889 8.73813333 32.03982222 0l133.98471111-133.98471111c5.82542222-5.82542222 8.73813333-14.56355555 5.82542223-23.30168889-2.91271111-8.73813333-8.73813333-14.56355555-17.47626667-14.56355556l-256.31857778-40.77795555H220.72888889c-5.82542222 0-11.65084445 2.91271111-14.56355556 5.82542222-5.82542222 5.82542222-8.73813333 11.65084445-5.82542222 20.38897778l32.03982222 235.9296c0 5.82542222 2.91271111 8.73813333 5.82542222 11.65084444l43.69066667 43.69066667 291.27111111 291.27111111c34.95253333 34.95253333 81.55591111 37.86524445 110.68302222 8.73813333l128.1592889-128.15928888c17.47626667-17.47626667 26.2144-40.77795555 26.2144-64.07964445-2.91271111-26.2144-11.65084445-46.60337778-26.2144-61.16693333z"  horiz-adv-x="1024" />

    
    <glyph glyph-name="cha" unicode="&#58917;" d="M774.4 701.7L512 439.3 249.6 701.7c-15.1 15.1-39.9 15.1-55.1 0-15.1-15.1-15.1-39.9 0-55.1l262.4-262.4-262.4-262.4c-15.1-15.1-15.1-39.9 0-55.1 15.1-15.1 39.9-15.1 55.1 0L512 329.1l262.4-262.4c15.1-15.1 39.9-15.1 55.1 0 15.1 15.1 15.1 39.9 0 55.1L567.1 384.2l262.4 262.4c15.1 15.1 15.1 39.9 0 55.1-15.1 15.1-39.9 15.1-55.1 0z"  horiz-adv-x="1024" />

    
    <glyph glyph-name="shiyan" unicode="&#58916;" d="M890.321455 769.861818H133.678545A82.292364 82.292364 0 0 1 51.2 687.383273v-467.642182a82.292364 82.292364 0 0 1 82.478545-82.478546h302.545455v-54.970181H326.097455a41.378909 41.378909 0 0 1-41.239273-41.239273v-13.963636h453.911273v13.963636a41.378909 41.378909 0 0 1-41.239273 41.239273h-109.940364V136.843636h302.545455a82.292364 82.292364 0 0 1 82.664727 82.525091V687.383273a82.525091 82.525091 0 0 1-82.478545 82.478545z m-110.312728-280.436363a63.813818 63.813818 0 0 0-28.625454 7.074909l-92.113455-91.787637a61.160727 61.160727 0 0 0 7.074909-29.323636 62.557091 62.557091 0 0 0-62.417454-62.417455 62.789818 62.789818 0 0 0-62.417455 62.789819 60.741818 60.741818 0 0 0 7.074909 28.951272L456.471273 496.453818a64.744727 64.744727 0 0 0-29.696-7.074909 63.813818 63.813818 0 0 0-28.625455 7.074909l-92.113454-91.741091a60.741818 60.741818 0 0 0 7.074909-28.951272 62.603636 62.603636 0 0 0-62.789818-62.417455 63.348364 63.348364 0 0 0-44.218182 18.199273 61.765818 61.765818 0 0 0-18.199273 44.218182 62.603636 62.603636 0 0 0 62.789818 62.370909 54.085818 54.085818 0 0 0 28.951273-7.074909l92.113454 91.787636a65.722182 65.722182 0 0 0-7.074909 29.323636 62.789818 62.789818 0 0 0 62.789819 62.417455 62.789818 62.789818 0 0 0 62.417454-62.789818 60.741818 60.741818 0 0 0-7.074909-28.951273l92.113455-91.741091a60.741818 60.741818 0 0 0 28.951272 7.074909h0.372364a63.813818 63.813818 0 0 0 28.625454-7.074909l92.113455 91.741091a61.812364 61.812364 0 0 0 11.124364 73.541818 63.720727 63.720727 0 0 0 44.218181 18.199273l7.447273-0.744727a62.464 62.464 0 0 0-7.819636-124.462546z"  horiz-adv-x="1024" />

    
    <glyph glyph-name="bianji" unicode="&#59116;" d="M332.8 332.8s-8.533333 0 0 0l-51.2-179.2c0-8.533333 0-25.6 8.533333-25.6 8.533333-8.533333 17.066667-8.533333 25.6-8.533333h8.533334l179.2 51.2H512L972.8 640c17.066667 17.066667 25.6 34.133333 25.6 51.2 0 25.6-8.533333 51.2-25.6 68.266667l-42.666667 42.666666c-17.066667 17.066667-42.666667 25.6-68.266666 25.6-25.6 0-42.666667-8.533333-59.733334-17.066666L332.8 332.8z m597.333333 349.866667l-51.2-42.666667-76.8 76.8 51.2 42.666667c8.533333 8.533333 25.6 8.533333 25.6 0l42.666667-42.666667c8.533333-8.533333 8.533333-8.533333 8.533333-17.066667v-17.066666z m-512-358.4l341.333334 341.333333 76.8-76.8-341.333334-341.333333-76.8 76.8z m-68.266666-136.533334l25.6 93.866667 68.266666-68.266667-93.866666-25.6zM955.733333 494.933333c-17.066667 0-34.133333-17.066667-34.133333-34.133333v-443.733333c0-25.6-17.066667-42.666667-42.666667-42.666667H136.533333c-25.6 0-42.666667 17.066667-42.666666 42.666667V742.4c0 25.6 17.066667 42.666667 42.666666 42.666667h477.866667c17.066667 0 34.133333 17.066667 34.133333 34.133333S631.466667 853.333333 614.4 853.333333H128C68.266667 853.333333 25.6 810.666667 25.6 750.933333v-725.333333c0-59.733333 42.666667-102.4 102.4-102.4h759.466667c59.733333 0 102.4 42.666667 102.4 102.4V460.8c0 17.066667-17.066667 34.133333-34.133334 34.133333"  horiz-adv-x="1024" />

    
    <glyph glyph-name="weimingmingwenjianjia_jiantou" unicode="&#58918;" d="M324.30711377 806.30899284l418.95733469-425.66065099-425.66065099-418.95733469c-13.40663417-13.40663417-13.40663417-33.5165862 0-46.92322193 13.40663417-13.40663417 33.5165862-13.40663417 46.92322038 0L813.64928061 357.1867301c13.40663417 13.40663417 13.40663417 33.5165862 0 46.92322193L371.23033571 853.23221477c-13.40663417 13.40663417-33.5165862 13.40663417-46.92322194 0-13.40663417-13.40663417-13.40663417-33.5165862 0-46.92322193z"  horiz-adv-x="1024" />

    
    <glyph glyph-name="bianji2" unicode="&#59058;" d="M635.717818 633.716364a23.272727 23.272727 0 0 0 32.395637-0.512l139.636363-139.636364a23.272727 23.272727 0 0 0-0.558545-33.466182l-63.441455-59.531636a23.179636 23.179636 0 0 0-17.082182-15.965091l-291.84-273.594182A23.272727 23.272727 0 0 0 418.909091 104.727273H279.272727a23.272727 23.272727 0 0 0-23.272727 23.272727v139.636364a23.272727 23.272727 0 0 0 7.354182 16.989091z m-56.738909-116.875637L302.545455 257.629091V151.272727h107.147636l276.014545 258.839273-106.728727 106.728727z m72.098909 67.537455l-38.120727-35.700364 106.728727-106.728727 38.120727 35.700364-106.728727 106.728727z"  horiz-adv-x="1024" />

    
    <glyph glyph-name="baobiao" unicode="&#58980;" d="M725.333 170.667H640V341.333h85.333v-170.666z m-170.666 0h-85.334V597.333h85.334v-426.666z m-170.667 0h-85.333V469.333H384v-298.666zM810.667 768H213.333C166.4 768 128 729.6 128 682.667v-597.334C128 38.4 166.4 0 213.333 0h597.334C857.6 0 896 38.4 896 85.333V682.667C896 729.6 857.6 768 810.667 768z"  horiz-adv-x="1024" />

    
    <glyph glyph-name="zhangbu" unicode="&#58913;" d="M751.083313 813.447758H320.815838c-136.054949 0-163.287919-31.555232-163.414626-160.484849 4.243394 0.151273 4.243394-0.625778 4.243394-0.625778h-3.586586c-35.651232 0-45.565414-29.127111-45.565414-65.035636 0-35.918869 9.914182-65.035636 45.565414-65.035636l-0.236606 1.080888v-90.656323l0.236606 5.606142c-35.651232 0-45.565414-29.120646-45.565414-65.030465 0-35.92404 9.914182-65.035636 45.565414-65.035636l-0.236606 6.605575v-99.722343l0.236606 9.135838c-35.651232 0-45.565414-29.111596-45.565414-65.014949 0-35.92404 2.338909-73.055677 37.990141-73.055677l6.666344 0.071111c0.964525-113.161051 26.666667-134.035394 163.666747-134.035394H751.083313c119.742061 0 159.181576 28.206545 159.181576 141.207273v559.696162c0 136.698828-35.757253 160.329697-159.181576 160.329697zM683.623434 332.968081c23.408485 0 35.60598-12.572444 36.692041-36.262788 1.091232-23.727838-11.207111-38.425859-40.33293-38.314667-16.651636 0.036202-96.081455 2.051879-96.081454 2.051879v-81.590303c0-23.707152-22.47499-27.832889-46.034748-27.832889s-44.621576 4.125737-44.621575 27.832889v81.590303h-99.722344c-23.358061 0-36.262788 12.555636-36.262788 36.262788 0 15.762101-0.307717 5.333333-0.21204 6.499555 1.798465 22.061253 14.258424 29.763232 36.474828 29.763233h99.722344V387.361616h-99.722344c-17.166222 0-34.10101 4.12703-34.10101 43.318303 0 23.717495 14.425212 38.273293 37.990142 38.273293h75.975111l-51.843879 47.974142-24.221737 24.398868c-15.707798 15.824162-16.060768 40.652283-2.106182 57.521132 0.828768 1.009778 1.176566 2.267798 2.106182 3.221979 16.66198 16.768 43.646707 16.768 60.307393 0l3.176728-3.221979 77.580929-78.121374 80.752485 81.343353c16.656808 16.768 43.636364 16.768 60.288 0 16.651636-16.768 16.651636-43.985455 0-60.743111l-73.076364-72.37301h75.980283c23.555879 0 37.98497-14.555798 37.98497-38.273293 0-23.716202-13.136162-43.318303-36.692041-43.318303h-99.722343v-54.393535h99.722343z m0 0"  horiz-adv-x="1024" />

    
    <glyph glyph-name="baoshui-mian" unicode="&#59031;" d="M902.5 42.8c-12.7-18.5-26.6-34.6-43.8-48.3-31.1-24.7-66.3-41.2-103.5-53.9-31.6-10.9-64-19.3-97.1-24-19.3-2.8-38.6-5.8-58-7.9-16.7-1.9-33.5-2.8-50.3-3.4-21.3-0.7-42.9-1.5-64.4-0.9-20.4 0.6-40.6 2.4-61 4.3-15.7 1.5-31.6 2.8-47.2 5.8-26.2 4.9-52.4 10.3-78.2 16.7-29.6 7.3-57.8 18.2-85 31.8-22.3 11.2-43 24.7-61.2 41.7-25.8 24.3-43.2 53.9-57.6 85.7-12.7 28.3-22.5 57.5-29.4 87.6-5.2 22.6-9.5 45.5-13.1 68.3-3.2 20.4-5.1 41-6.9 61.6-1.3 13.7-1.9 27.3-2.2 41-0.6 17.8-1.3 35.4-0.9 53 0.6 22.1 1.3 44.2 3.4 66.3 3.9 44.8 10.6 89 22.2 132.4 7.5 27.9 16.7 55 28.8 81.2 10.3 21.9 22.3 42.7 37.4 61.6 15.5 19.5 34.8 34.8 56.2 47.9 27.7 16.8 57.3 29.2 88.2 38.9 29.6 9.4 59.7 16.7 90.4 21.2 17 2.4 33.9 4.9 50.9 6.7 15.9 1.7 32 2.8 48.1 3.4 26.4 0.7 52.8 1.7 79 0.9 21.9-0.6 44-3.4 65.9-5.2 37.4-3.4 74.3-10.9 110.4-20.6 24.7-6.7 49-15.2 72.2-25.8 19.8-9.2 38.7-19.7 56.3-32.8 24.1-18 43.2-40.4 58.2-66.4 16.5-28.6 29.2-58.6 38-90.2 7.1-25.3 12.7-51.1 18-76.9 3.9-19.3 6.6-38.9 9-58.4 1.5-10.9 2.1-21.9 2.4-32.9 0.9-34.1 2.2-68.1 2.1-102-0.2-20.4-2.8-40.6-4.3-61-0.2-1.1 0-2.2 0-3.4-0.2-9-0.2-9.2-8.4-7.3-37.1 8.2-73.2 19.7-107.8 35.2-39.3 17.6-77.9 37.1-116.6 55.8-13.9 6.7-28.4 11.8-43.8 11.4-13.9-0.4-27.9-2.8-41.4-6-33.3-7.5-66.3-16.7-99.6-24-34.1-7.3-68.5-13.3-102.9-19.7-13.7-2.4-27.7-3.9-41.6-5.6-6.4-0.7-9.7-4.9-10.9-13.7-3.7-30.1 18.3-58 44.9-66.4 9-2.8 19.1-3.4 28.6-3.7 16.7-0.6 33.3-0.7 49.8 0 20 0.9 39.9 2.8 59.9 4.3 12.7 0.9 25.3 2.2 38 3.6 7.3 0.7 14.4 1.3 21.7 2.2 13.5 1.7 14.6-6.9 12-17.2-3.2-12.4-12-20.8-22.1-27.9-22.8-15.9-48.7-25.5-75.1-33.9-15.3-4.9-30.9-10.3-46.6-12.5-17-2.2-34.8-1.9-52-1.1-13.3 0.6-26.6 3.6-39.7 5.4-18 2.4-34.1 9.4-50 18-20 11-40.6 21.3-61.8 30.5-26.8 11.6-53.9 22.1-81.4 32-14.2 5.2-29 9.2-44.7 9-29-0.6-43.2-20.2-41.9-46 0.2-1.9 2.2-4.1 4.1-5.2 30.7-20 61.4-40.2 92.5-59.7 31.6-19.8 63.8-38.9 95.6-58.8 14.8-9.4 29-19.7 43.8-29.2 22.8-15 45.9-29.8 72.4-37.8 15-4.5 30.1-6 45.3-3.2 44.9 8.4 89.7 17.2 134.4 26 26.4 5.2 52.8 10.9 79.2 15.7 20.6 3.7 41.6 6 62.3 9.4 20.8 3.6 40.4-1.5 60.3-6 22.1-4.9 44-10.5 66.1-15.7 1.8-0.8 2.9-1.3 4.4-1.9z m-475 489.5c-56.5 0-113 0-169.8-0.2-4.7 0-9.4-0.7-13.7-2.1-25.5-7.3-34.4-36.1-25.3-58.6 7.3-18.2 22.1-25.5 40.8-25.5 103.7-0.2 207.4-0.2 311.1 0 11 0 22.1 0.4 33.1 1.1 10.1 0.7 18.2 6 24.7 13.7 8.4 10.1 10.7 22.1 9.2 35-1.3 10.9-6 20-14.2 27-8 7.1-18 9.4-28.4 9.4-55.8 0.2-111.5 0.2-167.5 0.2z m-0.4 173.1H259c-4.3 0-8.6-0.4-12.7-1.5-27.5-7.1-36.5-36.3-27.1-59.3 7.3-18 21.9-25.3 40.4-25.3 106.9-0.2 213.9-0.2 320.8 0 7.7 0 15.3 0.4 23 1.1 13.3 1.1 23 8.2 29.4 19.5 5.1 9 6.6 18.7 5.1 29-1.5 11.4-6.4 20.8-15.5 27.9-8 6.4-17.4 8.6-27.1 8.6-56.3 0.2-112.2 0-168.2 0z"  horiz-adv-x="1024" />

    
    <glyph glyph-name="fapiao-copy" unicode="&#58893;" d="M807.3125 468.375v-421.5796875c0-23.45625-17.1703125-34.7203125-38.5171875-25.059375l-127.575 57.7125L532.6296875 4.3125h-20.08125l-108.590625 75.1359375-148.5-59.56875c-21.3890625-8.60625-38.7703125 3.375-38.7703125 26.915625V468.375H132.3125a42.1875 42.1875 0 0 0-42.1875 42.1875V679.3125a42.1875 42.1875 0 0 0 42.1875 42.1875h759.375a42.1875 42.1875 0 0 0 42.1875-42.1875v-168.75a42.1875 42.1875 0 0 0-42.1875-42.1875h-84.375z m0 42.1875a42.1875 42.1875 0 0 1 42.1875 42.1875V594.9375a42.1875 42.1875 0 0 1-42.1875 42.1875H216.6875a42.1875 42.1875 0 0 1-42.1875-42.1875v-42.1875a42.1875 42.1875 0 0 1 42.1875-42.1875v41.8921875C216.6875 575.953125 235.671875 594.9375 259.1703125 594.9375h505.659375C788.328125 594.9375 807.3125 575.953125 807.3125 552.4546875V510.5625zM343.25 299.625v-42.1875h337.5v42.1875H343.25z m0 126.5625v-42.1875h337.5V426.1875H343.25z"  horiz-adv-x="1024" />

    
    <glyph glyph-name="gaizhang" unicode="&#58930;" d="M335.507 354.754c-4.062-5.115-20.319-23.284-23.594-27.804-16.12-22.253-20.35-57.144-14.127-78.468 8.803-30.156 38.94-33.53 61.266-35.766 51.744-5.182 104.361-1.65 156.625-1.663 50.956-0.015 101.927 0.692 152.865-0.282 30.092-0.577 55.441 7.734 68.003 36.106 13.389 30.243 6.495 58.835-16.232 83.122-8.029 8.58-16.343 16.9-24.659 25.208-19.11 19.094-18.734 38.259-1.817 58.874 15.714 19.15 31.798 38.286 45.036 59.133 71.359 112.368 46.473 258.667-57.33 341.933C577.147 898.889 425.31 891.189 331.357 797.391c-102.109-101.941-85.599-270.128 5.295-383.98 20.974-26.268 11.436-42.817-1.144-58.657zM944.655 83.495c-0.213 54.804-23.616 80.767-77.554 80.883-233.967 0.502-467.937 0.352-701.903-0.288-53.615-0.146-76.27-23.975-76.971-76.696-0.328-24.64-0.056-49.289-0.056-76.663H944.67c0 26.068 0.077 49.417-0.015 72.764zM136.123-105.884H894.84v78.14H136.123v-78.14z"  horiz-adv-x="1024" />

    
    <glyph glyph-name="shuju" unicode="&#58892;" d="M1066.445596-43.108808h-53.056995V657.243523a42.445596 42.445596 0 0 1-42.445596 42.445596h-169.782383a42.445596 42.445596 0 0 1-42.445596-42.445596v-700.352331h-80.063005a41.915026 41.915026 0 0 1 3.130362 15.917098V853.554404a42.445596 42.445596 0 0 1-42.445595 42.445596h-169.782384a42.445596 42.445596 0 0 1-42.445596-42.445596v-880.746114a41.915026 41.915026 0 0 1 3.130363-15.917098H350.176166v382.010362a42.445596 42.445596 0 0 1-42.445596 42.445596H137.948187a42.445596 42.445596 0 0 1-42.445596-42.445596v-382.010362H42.445596a42.445596 42.445596 0 0 1 0-84.891192h1024a42.445596 42.445596 0 0 1 0 84.891192z"  horiz-adv-x="1108" />

    
    <glyph glyph-name="gaiyaoxinxi" unicode="&#59265;" d="M512.186242 756.229812c-252.220419 0-457.417871-205.197452-457.417871-457.417871s205.197452-457.417871 457.417871-457.417871 457.417871 205.197452 457.417871 457.417871S764.40666 756.229812 512.186242 756.229812zM381.494691 102.775126 250.804163 102.775126 250.804163 233.466678l130.690528 0L381.494691 102.775126zM381.494691 364.157205 250.804163 364.157205 250.804163 494.847733l130.690528 0L381.494691 364.157205zM773.567297 102.775126 446.840978 102.775126 446.840978 233.466678l326.727343 0L773.568321 102.775126zM773.567297 364.157205 446.840978 364.157205 446.840978 494.847733l326.727343 0L773.568321 364.157205z"  horiz-adv-x="1024" />

    
    <glyph glyph-name="gaikuang" unicode="&#59049;" d="M966.656 896H57.344C25.770667 896 0 870.4 0 838.656v-703.232c0-31.616 25.6-57.344 57.344-57.344h909.312c31.573333 0 57.344 25.6 57.344 57.344V838.656C1024 870.442667 998.272 896 966.656 896z m-162.986667-344.064l-178.218666-178.218667a34.389333 34.389333 0 0 0-48.554667 0L422.997333 527.658667 269.056 373.76a34.389333 34.389333 0 0 0-48.512 0 34.432 34.432 0 0 0 0 48.554667l178.176 178.218666a34.389333 34.389333 0 0 0 48.554667 0l153.898666-153.941333 153.898667 153.941333a33.962667 33.962667 0 0 0 33.28 8.96c11.861333-3.072 21.12-12.373333 24.405333-24.448a34.986667 34.986667 0 0 0-9.130666-33.066666zM134.016-59.264h755.882667a34.389333 34.389333 0 0 0 0-68.736H134.058667a34.389333 34.389333 0 0 0 0 68.736z"  horiz-adv-x="1024" />

    
    <glyph glyph-name="chuli" unicode="&#58997;" d="M512 831.3C262.8 831.3 64.7 633.2 64.7 384S262.8-63.3 512-63.3c249.2 0 447.3 198.1 447.3 447.3S761.2 831.3 512 831.3z m204.5-728.5c-19.2 0-38.3 6.4-51.1 19.2L531.2 256.2s-6.4 6.4-19.2 0c-25.6-12.8-57.5-19.2-89.5-19.2-115 0-210.9 95.9-210.9 217.3 0 19.2 0 44.7 6.4 63.9 6.4 12.8 12.8 6.4 12.8 6.4l102.3-102.2c12.8-12.8 38.3-25.6 57.5-25.6 19.2 0 44.7 6.4 57.5 25.6l6.4 6.4c32 32 32 83.1 0 115l-95.9 95.9s-12.8 12.8 6.4 19.2c19.2 6.4 38.3 6.4 57.5 6.4 121.4 0 217.3-95.9 217.3-210.9 0-25.6-6.4-57.5-19.2-83.1-12.8-19.2 6.4-32 6.4-32l134.2-134.2c12.8-12.8 19.2-31.9 19.2-51.1-19.2-44.8-44.7-51.2-63.9-51.2z m0 0"  horiz-adv-x="1024" />

    
    <glyph glyph-name="huaban" unicode="&#58891;" d="M854.565699 669.319957l57.144142-115.789701a60.880751 60.880751 0 0 1 45.832718-33.290809l127.778457-18.570153c49.91928-7.258728 69.855384-68.613611 33.731074-103.85739l-92.455655-90.130152a60.846884 60.846884 0 0 1-17.509002-53.870377l21.83263-127.25917c8.523079-49.670926-43.665259-87.646606-88.323937-64.165805l-114.276996 60.113109a60.858173 60.858173 0 0 1-56.647433 0l-114.288284-60.079242c-44.647389-23.480801-96.847016 14.438435-88.312648 64.165805l21.821341 127.259169a60.846884 60.846884 0 0 1-17.509002 53.870377L480.904872 397.845771c-36.12431 35.209913-16.188206 96.564795 33.742363 103.85739l127.767167 18.570153a60.869462 60.869462 0 0 1 45.832718 33.290809l57.16672 115.755834c22.329339 45.234409 86.845098 45.234409 109.151859 0z"  horiz-adv-x="1599" />

    
    <glyph glyph-name="bofang" unicode="&#58890;" d="M546.904228 877.89427c-277.76918 0-502.94529-225.17611-502.94529-502.94529 0-277.77164 225.17488-502.94775 502.94529-502.94775 277.76795 0 502.94529 225.17611 502.94529 502.94775C1049.849518 652.71693 824.672178 877.89427 546.904228 877.89427L546.904228 877.89427zM546.904228-77.70165899999995c-249.992631 0-452.651868 202.659237-452.651868 452.651868 0 249.990172 202.659237 452.649408 452.651868 452.649408s452.650638-202.659237 452.650638-452.649408C999.554866 124.95757800000001 796.896859-77.70165899999995 546.904228-77.70165899999995L546.904228-77.70165899999995zM775.203924 410.593522c-78.267962 53.25591-220.1919 132.967608-301.004232 182.358388-33.132146 20.893592-60.993549 12.502952-63.667043-24.399633-1.938099-98.840588 0-289.550264 0-390.101445 1.681079-37.462125 34.709926-42.403293 63.37559-27.362121 80.72133 48.906255 219.456505 132.95777 300.588574 182.112436C773.968017 333.52334399999995 836.097862 367.69463599999995 775.203924 410.593522L775.203924 410.593522z"  horiz-adv-x="1085" />

    
    <glyph glyph-name="weixuanzhong" unicode="&#58912;" d="M512-128C229.2224-128 0 101.2224 0 384 0 666.7776 229.2224 896 512 896 794.7776 896 1024 666.7776 1024 384 1024 101.2224 794.7776-128 512-128ZM512 844.8C257.5104 844.8 51.2 638.4896 51.2 384 51.2 129.5104 257.5104-76.8 512-76.8 766.4896-76.8 972.8 129.5104 972.8 384 972.8 638.4896 766.4896 844.8 512 844.8Z"  horiz-adv-x="1024" />

    
    <glyph glyph-name="integral" unicode="&#59129;" d="M168.106667 274.56l120.746666-57.962667 223.274667-108.138666 215.317333 104.32 128.768 61.674666a64 64 0 0 0-29.952-84.970666l-286.229333-138.624a64 64 0 0 0-55.808 0L197.994667 189.482667A64 64 0 0 0 168.106667 274.56z m687.829333 133.930667a64 64 0 0 0-29.674667-85.546667L540.010667 184.32a64 64 0 0 0-55.808 0L197.994667 322.944A64 64 0 0 0 166.826667 405.12l317.013333-149.525333 28.288-13.696 286.229333 138.624-0.149333 0.064 57.728 27.882666zM540.032 710.208l286.208-138.602667a64 64 0 0 0 0-115.2l-286.208-138.624a64 64 0 0 0-55.808 0L197.994667 456.405333a64 64 0 0 0 0 115.2L484.224 710.186667a64 64 0 0 0 55.808 0z m-27.904-57.6l-286.229333-138.602667 286.229333-138.624 286.229333 138.624-286.229333 138.602667z"  horiz-adv-x="1024" />

    
    <glyph glyph-name="cart-Empty" unicode="&#59207;" d="M330.666667 128a53.333333 53.333333 0 1 0 0-106.666667 53.333333 53.333333 0 0 0 0 106.666667z m384 0a53.333333 53.333333 0 1 0 0-106.666667 53.333333 53.333333 0 0 0 0 106.666667zM94.762667 736h54.741333a96 96 0 0 0 92.906667-71.786667l1.024-4.394666L256.64 597.333333h0.213333l42.88-205.333333L332.224 234.666667h402.218667l61.653333 298.666666H313.813333l-13.376 64h495.68a64 64 0 0 0 62.677334-76.949333l-61.653334-298.666667A64 64 0 0 0 734.442667 170.666667H332.224a64 64 0 0 0-62.677333 51.050666l-60.586667 293.418667-0.405333-0.085333-27.733334 131.562666a32 32 0 0 1-28.309333 25.237334l-2.986667 0.149333H94.741333v64h54.741334z"  horiz-adv-x="1024" />

    
    <glyph glyph-name="product" unicode="&#59229;" d="M537.984 756.48l277.333333-123.178667A64 64 0 0 0 853.333333 574.805333v-381.610666a64 64 0 0 0-38.016-58.496l-277.333333-123.157334a64 64 0 0 0-51.968 0l-277.333333 123.157334A64 64 0 0 0 170.666667 193.194667V574.805333a64 64 0 0 0 38.016 58.496l277.333333 123.157334a64 64 0 0 0 51.968 0zM234.666667 514.56v-321.365333l250.666666-111.317334V407.146667L234.666667 514.56z m554.666666-2.304l-240-102.826667V86.613333L789.333333 193.194667V512.256zM512 697.962667l-266.581333-118.378667 269.290666-115.413333 266.517334 114.24L512 697.962667z"  horiz-adv-x="1024" />

    
    <glyph glyph-name="cart-Empty-fill" unicode="&#59258;" d="M330.666667 128a53.333333 53.333333 0 1 0 0-106.666667 53.333333 53.333333 0 0 0 0 106.666667z m384 0a53.333333 53.333333 0 1 0 0-106.666667 53.333333 53.333333 0 0 0 0 106.666667zM94.762667 736h54.741333a96 96 0 0 0 92.906667-71.786667l1.024-4.394666L256.64 597.333333 796.096 597.333333a64 64 0 0 0 62.677333-76.949333l-61.653333-298.666667A64 64 0 0 0 734.442667 170.666667H332.224a64 64 0 0 0-62.677333 51.050666l-60.586667 293.418667-0.405333-0.085333-27.733334 131.562666a32 32 0 0 1-28.309333 25.237334l-2.986667 0.149333H94.741333v64h54.741334z"  horiz-adv-x="1024" />

    
    <glyph glyph-name="integral-fill" unicode="&#59266;" d="M168.106667 274.56l120.746666-57.962667 223.274667-108.138666 215.317333 104.32 128.768 61.674666a64 64 0 0 0-29.952-84.970666l-286.229333-138.624a64 64 0 0 0-55.808 0L197.994667 189.482667A64 64 0 0 0 168.106667 274.56z m687.829333 133.930667a64 64 0 0 0-29.674667-85.546667L540.010667 184.32a64 64 0 0 0-55.808 0L197.994667 322.944A64 64 0 0 0 166.826667 405.12l317.013333-149.525333 28.288-13.696 286.229333 138.624-0.149333 0.064 57.728 27.882666zM540.032 710.208l286.208-138.602667a64 64 0 0 0 0-115.2l-286.208-138.624a64 64 0 0 0-55.808 0L197.994667 456.405333a64 64 0 0 0 0 115.2L484.224 710.186667a64 64 0 0 0 55.808 0z"  horiz-adv-x="1024" />

    
    <glyph glyph-name="product1" unicode="&#59272;" d="M170.666667 542.421333l314.666666-135.253333v-395.306667L208.682667 134.677333A64 64 0 0 0 170.666667 193.194667v349.226666z m682.666666 8.170667v-357.397333a64 64 0 0 0-38.016-58.496L549.333333 16.597333V410.517333L853.333333 550.613333zM537.984 756.48l277.333333-123.157333c9.642667-4.266667 17.856-10.773333 24.149334-18.709334l-324.757334-150.4-334.72 143.872c6.613333 10.922667 16.533333 19.84 28.693334 25.237334l277.333333 123.157333a64 64 0 0 0 51.968 0z"  horiz-adv-x="1024" />

    
    <glyph glyph-name="home1" unicode="&#59303;" d="M556.586667 736.64l288.490666-183.914667A64 64 0 0 0 874.666667 498.752v-392.746667a64 64 0 0 0-64-64H555.456l0.021333 196.992H490.666667v-196.992H234.666667a64 64 0 0 0-64 64v398.293334a64 64 0 0 0 30.272 54.4l287.530666 178.346666a64 64 0 0 0 68.138667-0.426666zM810.666667 105.984V498.773333L522.197333 682.666667 234.666667 504.32v-398.336h192v197.013333h192.810666v-196.992H810.666667z"  horiz-adv-x="1024" />

    
    <glyph glyph-name="account-fill" unicode="&#59306;" d="M644.8 314.432l160.64-187.456A64 64 0 0 0 756.842667 21.333333H267.157333a64 64 0 0 0-48.597333 105.642667l160.661333 187.434667A254.805333 254.805333 0 0 1 512 277.333333c48.64 0 94.08 13.546667 132.8 37.098667zM512 746.666667c117.824 0 213.333333-95.509333 213.333333-213.333334s-95.509333-213.333333-213.333333-213.333333-213.333333 95.509333-213.333333 213.333333S394.176 746.666667 512 746.666667z"  horiz-adv-x="1024" />

    
    <glyph glyph-name="home-fill" unicode="&#59310;" d="M556.586667 736.64l288.490666-183.914667A64 64 0 0 0 874.666667 498.752v-392.746667a64 64 0 0 0-64-64l-224 0.021334V298.666667H448v-256.64l-213.333333-0.042667a64 64 0 0 0-64 64V504.32a64 64 0 0 0 30.272 54.4l287.530666 178.346667a64 64 0 0 0 68.138667-0.426667z"  horiz-adv-x="1024" />

    
    <glyph glyph-name="account" unicode="&#59314;" d="M644.8 314.432l160.64-187.456a64 64 0 0 0-48.597-105.643H267.157a64 64 0 0 0-48.597 105.643l160.661 187.435a253.813 253.813 0 0 1 61.206-26.944l-173.27-202.134h489.686l-173.27 202.134a254.613 254.613 0 0 1 61.227 26.965zM512 746.667c117.824 0 213.333-95.51 213.333-213.334S629.824 320 512 320s-213.333 95.51-213.333 213.333S394.176 746.667 512 746.667z m0-64A149.333 149.333 0 1 1 512 384a149.333 149.333 0 0 1 0 298.667z"  horiz-adv-x="1024" />

    
    <glyph glyph-name="gouwuche-" unicode="&#58901;" d="M823.873016 344.177778l112.355555 273.777778c4.165079 10.361905 2.946032 22.044444-3.352381 31.59365-6.196825 9.549206-16.660317 14.933333-27.83492 14.933334H291.657143L280.380952 719.034921c-3.352381 15.847619-17.066667 26.615873-32.914285 26.615873H140.190476c-18.692063 0-33.726984-14.933333-33.726984-33.726984 0-18.692063 14.933333-33.726984 33.726984-33.726985h79.847619l97.320635-472.685714c3.352381-15.847619 17.066667-26.615873 32.914286-26.615873h457.752381c18.692063 0 33.726984 14.933333 33.726984 33.726984 0 18.692063-14.933333 33.726984-33.726984 33.726984H377.803175l-15.44127 74.463492 430.222222 2.539683c13.815873 0 26.311111 8.330159 31.288889 20.825397zM348.647619 387.860317l-43.27619 209.269842h549.282539l-84.825397-206.730159zM320.812698 68.774603c0-39.51746 32-71.619048 71.517461-71.619047 39.51746 0 71.619048 32 71.619047 71.619047 0 39.51746-32 71.51746-71.619047 71.51746-39.51746 0-71.51746-32-71.517461-71.51746zM661.130159 68.774603c0-39.51746 32-71.619048 71.619047-71.619047 39.51746 0 71.51746 32 71.517461 71.619047 0 25.6-13.612698 49.168254-35.75873 61.968254-22.146032 12.8-49.473016 12.8-71.517461 0-22.146032-12.8-35.860317-36.469841-35.860317-61.968254z"  horiz-adv-x="1056" />

    
    <glyph glyph-name="gouwuche-1" unicode="&#58911;" d="M822.857143 342.146032l112.355555 273.777778c4.165079 10.361905 2.946032 22.044444-3.352381 31.59365-6.196825 9.549206-16.660317 14.933333-27.83492 14.933334H290.742857l-11.27619 54.552381c-3.352381 15.847619-17.066667 26.615873-32.914286 26.615873H139.27619c-18.692063 0-33.726984-14.933333-33.726984-33.726985 0-18.692063 14.933333-33.726984 33.726984-33.726984h79.84762l97.320634-472.685714c3.352381-15.847619 17.066667-26.615873 32.914286-26.615873h457.752381c18.692063 0 33.726984 14.933333 33.726984 33.726984 0 18.692063-14.933333 33.726984-33.726984 33.726984H376.787302l-15.44127 74.463492 430.222222 2.539683c13.815873 0 26.311111 8.330159 31.288889 20.825397z m-475.12381 43.682539l-43.27619 209.269842h549.28254l-84.926985-206.831746-421.079365-2.438096z m-27.936508-319.085714c0-39.51746 32-71.619048 71.517461-71.619047 39.51746 0 71.619048 32 71.619047 71.619047 0 39.51746-32 71.51746-71.619047 71.51746-39.415873 0-71.51746-32-71.517461-71.51746z m340.419048 0c0-39.51746 32-71.619048 71.619048-71.619047 39.51746 0 71.51746 32 71.51746 71.619047 0 25.6-13.612698 49.168254-35.75873 61.968254-22.146032 12.8-49.473016 12.8-71.517461 0-22.247619-12.8-35.860317-36.469841-35.860317-61.968254z m0 0"  horiz-adv-x="1056" />

    
    <glyph glyph-name="2xuanzhong" unicode="&#58895;" d="M821.571103 695.204811C738.506269 778.255319 628.075157 823.993013 510.610862 823.993013c-117.478621 0-227.919966-45.741787-310.975591-128.788202C116.571461 612.148164 70.818417 501.693516 70.818417 384.199545c0-117.464295 45.753043-227.895407 128.817877-310.970474 83.055624-83.050508 193.495946-128.822994 310.975591-128.822994 117.463272 0 227.894384 45.771463 310.974567 128.822994 83.065857 83.075067 128.817877 193.506179 128.817877 310.970474C950.403307 501.66384 904.651286 612.148164 821.571103 695.204811L821.571103 695.204811 821.571103 695.204811zM752.090659 512.994909 452.580191 213.478302l0 0c-0.192382-0.188288-0.38067-0.322341-0.568958-0.51063-5.713119-5.442966-13.068643-8.184403-20.423145-8.184403-2.818185 0-5.637394 0.375553-8.377808 1.179872-0.024559 0.028653-0.053212 0.028653-0.077771 0.028653-1.291412 0.400113-2.524496 0.881067-3.762697 1.421372-3.164063 1.450025-6.169513 3.434216-8.775874 6.065136l-0.014326 0L268.8384 355.210303c-11.595083 11.595083-11.595083 30.386054 0 41.98216 11.594059 11.599176 30.386054 11.599176 41.980113 0l120.769574-120.764458 278.521434 278.547017c11.595083 11.594059 30.386054 11.594059 41.981137 0C763.656065 543.380964 763.656065 524.588969 752.090659 512.994909L752.090659 512.994909 752.090659 512.994909zM752.090659 512.994909"  horiz-adv-x="1024" />

    
    <glyph glyph-name="-books" unicode="&#58902;" d="M224 768h-192c-17.6 0-32-14.4-32-32v-704c0-17.6 14.4-32 32-32h192c17.6 0 32 14.4 32 32v704c0 17.6-14.4 32-32 32zM192 576H64V640h128v-64zM544 768h-192c-17.6 0-32-14.4-32-32v-704c0-17.6 14.4-32 32-32h192c17.6 0 32 14.4 32 32v704c0 17.6-14.4 32-32 32zM512 576H384V640h128v-64zM765.056 718.528l-171.456-86.4a32.128 32.128 0 0 1-14.208-42.944l288-571.52a32.128 32.128 0 0 1 42.944-14.208l171.456 86.4a32.128 32.128 0 0 1 14.208 42.944l-288 571.52a32.128 32.128 0 0 1-42.944 14.208zM928 32a32 32 0 1 0-64 0 32 32 0 0 0 64 0z"  horiz-adv-x="1152" />

    
    <glyph glyph-name="shu2" unicode="&#58924;" d="M36.264334 578.467914V-105.899281c0-12.155396 11.768633-22.100719 26.152518-22.100719h162.071942c14.383885 0 26.152518 9.945324 26.152518 22.100719V578.467914zM250.641312 617.125755V726.561151c0 12.155396-11.768633 22.100719-26.152518 22.10072h-162.071942C48.032967 748.661871 36.264334 738.716547 36.264334 726.561151v-109.435396zM594.418003 506.06964l189.347914-619.188489c3.554532-11.621295 17.606906-17.735827 31.309352-13.555108l153.526331 46.964029c13.628777 4.180719 21.861295 17.091223 18.306763 28.712518L797.48678 568.227914zM786.178578 605.209784l-32.027625 104.646907c-3.554532 11.621295-17.606906 17.71741-31.309353 13.555108l-153.452662-46.982446c-13.628777-4.162302-21.861295-17.091223-18.306762-28.712518l32.027625-104.646907zM553.586924 42.212374V873.899281c0 12.155396-13.573525 22.100719-30.1859 22.100719H336.263183c-16.57554 0-30.185899-9.945324-30.1859-22.100719v-831.686907zM306.077283 3.536115V-105.899281c0-12.155396 13.573525-22.100719 30.1859-22.100719H523.401024c16.57554 0 30.185899 9.945324 30.1859 22.100719v109.435396z"  horiz-adv-x="1024" />

    
    <glyph glyph-name="shu3" unicode="&#58908;" d="M984.172317-51.00186L803.107138 540.878782l-19.670647 64.311034-1.146857 3.742645-0.153597 0.51199-30.724505 100.390952c-3.553209 11.622168-17.602208 17.714846-31.308174 13.552369l-153.448451-46.98018c-6.968181-2.129877-12.50791-6.553469-15.800004-11.914002v209.383332c0 12.154637-13.572849 22.097478-30.186916 22.097479h-187.132258c-16.578228 0-30.181796-9.942841-30.181796-22.097479V-105.902522c0-12.154637 13.572849-22.097478 30.181796-22.097478h187.132258c16.573109 0 30.186916 9.942841 30.186916 22.097478V639.51873l28.656067-93.637808 12.175116-39.827683 0.931822-3.046339 0.783344-2.575309 187.623767-613.548049c3.553209-11.627287 17.602208-17.740445 31.308174-13.557489l153.52525 46.969941c13.634287 4.172717 21.867083 17.079978 18.313874 28.702146zM221.758125 748.639107H59.692886c-14.381792 0-26.152437-9.942841-26.152437-22.097478v-109.432691h0.148477v-38.660347h-0.148477v-684.351113c0-12.154637 11.770645-22.097478 26.152437-22.097478h162.065239c14.386912 0 26.152437 9.942841 26.152437 22.097478V726.541629c0 12.154637-11.765525 22.097478-26.152437 22.097478z"  horiz-adv-x="1387" />

    
    <glyph glyph-name="locationfuzhi" unicode="&#58941;" d="M139.636364 430.545455m46.545454 0l651.636364 0q46.545455 0 46.545454-46.545455l0 0q0-46.545455-46.545454-46.545455l-651.636364 0q-46.545455 0-46.545454 46.545455l0 0q0 46.545455 46.545454 46.545455ZM139.636364 430.545455m46.545454 0l651.636364 0q46.545455 0 46.545454-46.545455l0 0q0-46.545455-46.545454-46.545455l-651.636364 0q-46.545455 0-46.545454 46.545455l0 0q0 46.545455 46.545454 46.545455ZM139.636364 430.545455m46.545454 0l651.636364 0q46.545455 0 46.545454-46.545455l0 0q0-46.545455-46.545454-46.545455l-651.636364 0q-46.545455 0-46.545454 46.545455l0 0q0 46.545455 46.545454 46.545455Z"  horiz-adv-x="1024" />

    
    <glyph glyph-name="yidu" unicode="&#58889;" d="M1022.470669 480.18055v-537.548886c0-38.455847-31.513738-69.938885-70.019727-69.938886H70.055031C31.533692-127.306198 0.020978-95.82316 0.020978-57.367313V496.883977c0 0.8913 0.242524 1.711991 0.271176 2.602267V567.078689H0.020978L393.849578 853.579865c57.074903 56.559157 149.615553 56.559157 206.67613 0l422.430008-286.5022h0.37146v-86.897115h-0.856507zM58.479391-41.512207l225.558176 237.438761c13.673417 13.663184 35.837206 13.663184 49.510623 0 13.673417-13.648858 13.673417-35.796274 0-49.445132L139.617339-69.685873H891.965359L698.033485 146.481422c-13.70207 13.648858-13.70207 35.796274 0 49.445132 13.672394 13.663184 35.823903 13.663184 49.496298 0L964.953697-37.142689V458.866105L576.206836 133.412778c-19.753903-19.759019-32.31294-34.411741-60.400649-34.411741-28.129664 0-45.028543 14.652721-64.824401 34.411741L58.479391 458.852802V-41.512207z m876.831172 579.624167l-396.783908 254.015298c-22.835078 22.629393-59.842946 22.629393-82.664721 0L92.400968 538.11196l-6.475481 7.92039 31.308053-37.451983h0.448208l382.823965-325.70813c13.131065-13.124925 13.072737-13.111622 26.175149 0l382.866945 325.70813h0.038885l34.44244 39.389102-8.718569-9.857509z"  horiz-adv-x="1024" />

    
    <glyph glyph-name="weidu" unicode="&#58963;" d="M512.7 789.7c120 0 240 0.1 360.1 0 91.3-0.1 151.1-59.3 151.2-149.7 0.1-170.3 0.1-340.7 0-511-0.1-92-59.4-150.7-152.5-150.7-240-0.1-480.1-0.1-720.1 0C59.9-21.6 0.1 37.6 0.1 128 0 299.1 0 470.2 0.1 641.3 0.2 730 60.5 789.6 150.3 789.7 271.1 789.8 391.9 789.7 512.7 789.7zM511.6 716.6c-63.2 0-126.3 0-189.5 0-60.8 0-121.6 0.3-182.4-0.2-31.4-0.2-55-15.9-63.1-40.1-16.5-49.5-3.1-101.8 40.5-132.6 109.8-77.7 221.1-153.2 332-229.3 43.1-29.6 86.6-29.4 130-0.2 7.2 4.8 14.8 9.1 21.9 14 97.2 66.9 193.6 134.9 291.8 200.4 42.1 28.1 64.1 60.4 58.6 113.6-5.6 53.7-22 74.3-77.4 74.4C753.2 716.7 632.4 716.6 511.6 716.6zM933.9 72.4C854.7 150.7 776.8 228.1 698 304.7c-3.6 3.5-15.9 2.4-21.3-1-24.8-15.1-47.7-33.6-73.1-47.6-42.3-23.1-87.6-40.4-135.1-18.1-38.9 18.3-75.9 41-112.2 64-14.4 9.1-21.7 8.6-33.4-3.2-72.1-72.3-145-143.9-217.5-215.7-4.2-4.2-7.7-9.2-16.2-19.5 19.7-4.9 34.8-11.1 50.2-11.9 32.3-1.7 64.7-0.6 97.1-0.6 212.4 0 424.9 0 637.3 0C895.2 51.2 916.7 50.9 933.9 72.4zM75.2 494.2c0-115.3 0-227 0-334.4 65.5 65 132.3 131.4 199.9 198.6C211.4 401.6 144.7 446.9 75.2 494.2zM949 490.9c-69-46.9-134.3-91.2-196.4-133.3C819 291 883.9 226 949 160.9 949 268.5 949 377.2 949 490.9z"  horiz-adv-x="1025" />

    
    <glyph glyph-name="icon-test2" unicode="&#58905;" d="M741.69667454 648.15002015l-23.54353066 28.70593049c-70.33186299-61.60339339-141.52257057-107.32750654-213.57212143-137.17233815a1238.38783849 1238.38783849 0 0 0-9.60598402-39.96425668 671.19599605 671.19599605 0 0 1 75.60628571 33.64428461L417.77242133 307.46897228l28.28584377-19.12795121 192.54911247 284.66014106c33.67228935 21.73248973 68.04472455 46.77899743 103.08929697 75.14885802zM416.10141062 515.32791444c-20.72428131-25.47592935-38.94671207-44.68789869-54.67662979-57.66391277-15.92595741-13.23740077-35.30596041-12.1265057-58.14934649 3.32335288l-196.41390987 132.85944667c-23.11410899 15.62722847-26.40012094 35.66070014-9.86737202 60.10041632l78.41620013 115.93461836 238.24521827-161.15462664-16.43939589-24.29968728 33.46691476-22.63801019 125.57794202 185.65968982L235.54810986 964.37268199l-19.94011993-29.48075696 287.25534465-194.2948064-69.25830888-102.38915242-238.25455319 161.15462665 36.92096033 54.58327544-34.26041104 23.17012109L57.87940543 669.94785687c-28.38853171-41.9620024-22.26459933-76.68917604 18.37179458-104.18152351l211.9571215-143.36161623c36.64090251-24.78511971 69.10894374-24.86913782 97.37611769-0.25205178 15.38451159 13.5921418 34.28841708 32.94413876 56.6837104 58.04665855a311.57370176 311.57370176 0 0 0-26.16673898 35.12859054z m243.0622133-258.7734599a3.17398907 3.17398907 0 0 1 0.7934976 0.3267337c24.61708606 10.65153339 51.51197563 33.10283879 80.69400364 67.37258473l80.29258806-54.30321762-11.58505991-17.13020551 30.26491835-20.48156575 85.69770476 126.68883969-107.16880651 72.48830872 26.68017876 39.44148202 128.66791427-87.04198306 18.33445493 27.09093056-128.67725049 87.03264686 36.37018091 53.78977916-30.68500637 20.75228734-36.3701809-53.78044422-127.49167091 86.22981435-18.32512001-27.09093056 127.4916722-86.22981307-26.68017875-39.44148202-107.56088718 72.75903164-74.10330865-109.55863417 103.98548122-70.34119792c-24.15032217-27.98711482-45.68677219-45.65876614-64.59067639-52.99628285a236.47151961 236.47151961 0 0 0-10.03540695 84.30675056l-36.66890854 3.31401798a286.46184706 286.46184706 0 0 1 10.56751655-95.98516222c-33.68162557-3.15531794-76.68917604 3.09930716-129.01331909 18.74520546 1.41896022-14.50699718 2.31514448-28.08046785 2.66988421-40.7017422 55.89021281-14.38563809 102.41715845-19.14662235 139.58083565-14.28295015 23.7769126-54.98469235 65.08544631-108.08366187 123.93493736-159.30624477 13.81618754 6.13326731 28.58457141 12.21985745 44.27714687 18.24110189-62.65827767 48.17928653-106.4406559 98.21628986-131.34713469 150.09234143z m140.93444889 148.2719643l76.90388816-52.00674428-37.99451575-56.17960553-78.10813626 52.81891168c19.12795121 26.55881968 32.19731834 45.00529747 39.19876385 55.36743813z m-145.95681982 16.85014769l37.99451575 56.17960556 77.277299-52.27746589c-16.79413561-24.8411318-29.85416783-43.28760958-39.18009402-55.36743813l-76.09172073 51.46529846z m420.20814435-20.02413676l-96.20920923-142.23205002c-35.57668331-52.59486596-65.96296073-91.24285038-91.21484435-115.99062914-26.2414209-25.60662335-56.24495254-44.79992156-90.03860098-57.55188991 2.28713973-15.49653446 3.93948061-29.95685578 4.90101317-43.39029753 52.24012623 17.69965607 99.29918147 52.65087675 141.17716575 104.84432709l115.94395196-78.42553633-85.69770346-126.68883841 31.87058336-21.55511985 85.69770474 126.68883969 117.12953156-79.22836884-49.58891186-73.30981106c-10.5955226-15.67390433-24.13165232-17.93303803-40.59905424-6.8054058-14.34829714 9.70867198-32.52405203 23.16078487-54.5552707 40.38434212a908.82508661 908.82508661 0 0 0-16.40205493-37.11700132c22.31127649-16.24335618 42.61547107-30.56364729 60.94058978-42.96087461 30.01286656-20.30419458 55.72217786-14.64702608 77.09992787 16.95283565l214.23492631 316.73610032-324.68974475 219.64937795z m11.93046472-51.04521173l111.95779549-75.71830987-50.12102016-74.10330865-111.95779678 75.72764478 50.12102145 74.09397374z m-7.95364315-253.01360344l-113.75016657 76.9318929a792.68509365 792.68509365 0 0 1 52.17477923 73.29114122l111.95779549-75.71830858-50.38240815-74.50472554z m148.99077998-100.7741525l-117.12953155 79.22836755 50.38240945 74.49539064 117.12953024-79.22836884-50.38240814-74.49538935z m-47.32977815 182.41101756l50.12102144 74.10330865 117.12953154-79.22836755-50.12102144-74.10330865-117.12953154 79.22836755z"  horiz-adv-x="1442" />

    
    <glyph glyph-name="icon-test3" unicode="&#58906;" d="M683.16362392 232.37667677000002a3.17398907 3.17398907 0 0 1 0.7934976 0.32673369c24.61708606 10.65153339 51.51197563 33.10283879 80.69400364 67.37258474l80.29258805-54.30321762-11.5850599-17.13020552 30.26491835-20.48156575 85.69770476 126.6888397-107.16880651 72.48830872 26.68017876 39.44148202 128.66791426-87.04198306 18.33445494 27.09093056-128.67725049 87.03264685 36.37018091 53.78977916-30.68500637 20.75228735-36.3701809-53.78044422-127.49167092 86.22981434-18.32512-27.09093056 127.4916722-86.22981306-26.68017875-39.44148202-107.56088719 72.75903164-74.10330864-109.55863418 103.98548121-70.34119792c-24.15032217-27.98711482-45.68677219-45.65876614-64.59067638-52.99628285a236.47151961 236.47151961 0 0 0-10.03540695 84.30675056l-36.66890854 3.31401799a286.46184706 286.46184706 0 0 1 10.56751655-95.98516222c-33.68162557-3.15531794-76.68917604 3.09930716-129.01331909 18.74520546 1.41896022-14.50699718 2.31514448-28.08046785 2.66988421-40.70174221 55.89021281-14.38563809 102.41715845-19.14662235 139.58083564-14.28295014 23.7769126-54.98469235 65.08544631-108.08366187 123.93493736-159.30624477 13.81618754 6.13326731 28.58457141 12.21985745 44.27714687 18.24110189-62.65827767 48.17928653-106.4406559 98.21628986-131.34713468 150.09234143z m140.93444888 148.2719643l76.90388817-52.00674428-37.99451576-56.17960554-78.10813625 52.81891168c19.12795121 26.55881968 32.19731834 45.00529747 39.19876384 55.36743814z m-145.95681981 16.85014769l37.99451575 56.17960555 77.277299-52.27746588c-16.79413561-24.8411318-29.85416783-43.28760958-39.18009402-55.36743814l-76.09172073 51.46529847zM505.38289662 518.98788765l19.94011993 29.48075697-176.89387797 119.65938684 50.66246595 74.89680624L554.08495783 638.19918173l19.94011995 29.48075696-154.9933533 104.82565598 46.08818779 68.12874137-31.06775212 21.01367405-46.08818781-68.12874138-153.39702319 103.76143677-19.94011994-29.48075696L368.02385242 764.03851175l-50.66246597-74.89680624-176.89387797 119.65005193-19.94011864-29.48075697 164.54332524-111.29499188C207.20529567 643.05351772 119.41649347 636.05207091 21.72297701 646.9743272000001c2.10976857-16.9154947 3.24867099-30.65700032 3.46338311-41.24318672 94.32348641-5.9278914 179.75980318 4.21953843 256.33695633 30.42361838L169.14543294 470.01510353l31.06775213-21.01367535 112.6392702 166.53173732c0.13069399-80.79669161 23.36616078-162.3308687 69.73440641-244.60253263a572.774329 572.774329 0 0 0 42.24206021 14.39497433c-52.66021295 77.81874352-81.05807959 159.74500132-85.18426497 245.76943977L505.38289662 518.98788765z m260.31377791 104.98435473l-23.54353066 28.70593048c-70.33186299-61.60339339-141.52257057-107.32750654-213.57212143-137.17233814a1238.38783849 1238.38783849 0 0 0-9.60598401-39.96425668 671.19599605 671.19599605 0 0 1 75.60628571 33.64428461L441.77242133 283.29119450999997l28.28584377-19.12795121 192.54911246 284.66014105c33.67228935 21.73248973 68.04472455 46.77899743 103.08929697 75.14885803z m332.65272281-246.49759038l-96.20920923-142.23205003c-35.57668331-52.59486596-65.96296073-91.24285038-91.21484436-115.99062914-26.2414209-25.60662335-56.24495254-44.79992156-90.03860098-57.55188991 2.28713973-15.49653446 3.93948061-29.95685578 4.90101318-43.39029752 52.24012623 17.69965607 99.29918147 52.65087675 141.17716575 104.84432709l115.94395195-78.42553633-85.69770346-126.68883841 31.87058337-21.55511985 85.69770474 126.68883969 117.12953155-79.22836884-49.58891185-73.30981106c-10.5955226-15.67390433-24.13165232-17.93303803-40.59905424-6.80540581-14.34829714 9.70867198-32.52405203 23.16078487-54.55527071 40.38434213a908.82508661 908.82508661 0 0 0-16.40205493-37.11700133c22.31127649-16.24335618 42.61547107-30.56364729 60.94058979-42.9608746 30.01286656-20.30419458 55.72217786-14.64702608 77.09992786 16.95283565l214.23492631 316.73610032-324.68974474 219.64937795z m11.93046471-51.04521173l111.9577955-75.71830987-50.12102017-74.10330865-111.95779678 75.72764478 50.12102145 74.09397374z m-7.95364314-253.01360345l-113.75016657 76.93189291a792.68509365 792.68509365 0 0 1 52.17477922 73.29114121l111.9577955-75.71830857-50.38240815-74.50472555z m148.99077997-100.77415249l-117.12953154 79.22836754 50.38240944 74.49539065 117.12953024-79.22836885-50.38240814-74.49538934z m-47.32977814 182.41101756l50.12102144 74.10330865 117.12953153-79.22836755-50.12102144-74.10330865-117.12953153 79.22836755z"  horiz-adv-x="1442" />

    
    <glyph glyph-name="icon-test4" unicode="&#58907;" d="M641.91206063 564.87069954a352.28477888 352.28477888 0 0 0 41.21518067 0c-0.95219633 43.22226259-3.37003006 80.86203859-7.23482746 112.90999311l-35.50200139-0.96153254c1.91372887-33.81231826 2.42716864-71.13469549 1.52164818-111.94846057z m68.63284494-231.64518966c-1.04554937 31.67454365-3.55673484 75.75565084-7.5242215 132.25265645l-36.42619168-1.48430724c2.48317942-40.39367834 3.38869988-84.56813726 2.71656138-132.48603711l41.2338518 1.7176879z m192.11968952-193.26792686l-37.45306993 25.33590173-18.32511871-27.08159565 211.15428771-142.82950664 18.32512 27.08159436-31.87058465 21.56445477L1168.99961744 228.10112625l32.27200026-21.83517768 18.32512 27.09093057-32.27200026 21.82584147 33.9616821 50.20503827-29.48075696 19.94011994-33.96168338-50.19570335-82.86911922 56.04891283 32.86945685 48.60870818-29.48075696 19.94011994-32.86945685-48.60870948-32.67341715 22.09656567-18.3251187-27.08159436 32.67341714-22.09656566-124.50438922-184.08202957z m112.34987747-75.97969657l-82.86911921 56.04891285 30.18090152 44.6225517 82.86911921-56.04891286-30.18090152-44.62255169z m47.43246612 70.10781725l-82.86912052 56.04891285 29.91017991 44.2211348 82.86911921-56.04891156-29.9101786-44.22113609z m-5.79719741 169.99511912l82.86911921-56.04891286-29.9101786-44.22113477-82.86912052 56.04891154 29.91017991 44.22113609zM442.27748452 456.02154612a310.57482826 310.57482826 0 0 0-26.1760739 35.12859054c-20.72428131-25.47592935-38.94671207-44.68789869-54.67662979-57.66391277-15.92595741-13.23740077-35.30596041-12.1265057-58.14934649 3.32335289l-196.41390987 132.85944667c-23.11410899 15.62722847-26.40012094 35.66070014-9.86737202 60.10041632l78.41620013 115.93461835 238.24521827-161.15462663-16.43939589-24.29968729 33.46691476-22.63801018 125.57794202 185.65968982L235.54810986 940.19490421l-19.94011993-29.48075696 287.25534465-194.2948064-69.25830888-102.38915241-238.25455319 161.15462664 36.92096033 54.58327545-34.26041104 23.17012109L57.87940543 645.77007909c-28.38853171-41.9620024-22.26459933-76.68917604 18.37179458-104.18152351l211.9571215-143.36161622c36.64090251-24.78511971 69.10894374-24.86913782 97.37611769-0.25205179 15.38451159 13.5828056 34.297752 32.93480384 56.69304532 58.04665855z m331.79387822-236.62088343l111.82710278 165.33682281 68.5394932-46.34957577 19.66006081 29.07934135-68.53015697 46.3589107 51.47463338 76.09171944-32.27200026 21.82584277-51.47463338-76.09171945L702.38588653 551.2598879l-19.66939704-29.08867627 170.90997579-115.60788335-105.36710179-155.77751597c-12.30387557-18.77321149-26.69884859-22.59133433-43.15691559-11.4543659-18.33445492 12.39722732-37.40639406 26.83887749-57.20648508 43.34362036a674.39798988 674.39798988 0 0 0-18.27844284-39.89890839 6397.39897067 6397.39897067 0 0 1 60.2871211-41.35521089c32.93480384-22.27393553 60.98726566-16.28069714 84.16672166 17.9797152z m492.64977721 38.99338793l-100.24204289-148.2066173c-42.76483489-63.2183933-75.95169053-105.41377765-99.5699031-126.60482157-23.81425356-22.61933906-54.82599361-38.99338924-93.04455637-49.14081907 3.73410471-13.36809477 6.67471183-26.19474502 8.81248773-38.48928438 58.44807414 16.60743083 108.80247755 52.99628156 151.08187871 109.1758871l85.24961198-57.66391277-56.59035735-83.6626168c-9.88604185-14.60968513-22.12457042-16.97150678-36.72492063-7.10413477-8.50442387 5.75052153-21.82584276 16.12199711-39.94558557 31.08642197a654.6352411 654.6352411 0 0 0-15.97263328-33.90567129 948.62130836 948.62130836 0 0 1 43.00755175-30.84370511c29.75147986-20.1174898 55.22740922-14.5163321 76.42778936 16.83147787l218.5478165 323.10274956-141.03713684 95.42504656z m-29.92884974-284.62280009l-83.45724218 56.45966466c13.22806586 16.99017661 31.310469 42.6994879 54.2192008 77.14660372l82.066288-55.50746704-52.82824662-78.09880134z m-11.45436718 159.89436644l52.54819008 77.68804954 82.06628671-55.50746704-52.54818879-77.68804953-82.066288 55.50746703z m-244.77056628-95.74244663l-32.33734725-6.59069499c8.62578165-27.88442687 15.33783572-54.29388271 20.14549455-79.22836755l36.47286885 8.42040704a1198.45158782 1198.45158782 0 0 1-24.28101615 77.3986555zM673.69862715 172.31360140000004l-105.82452948 74.48605442c-38.18122182 26.80153653-59.05486695 58.62544531-62.58359575 95.47172374l116.81213277 172.70234557-76.89455194 52.00674298-19.40801033-28.67792445 46.20954686-31.26379184-92.56845756-136.85493936c-18.99725853-2.05375778-45.17333242-5.54514563-78.50021696-10.47416353l-5.90922027-44.79058664c42.05535543 11.81844185 68.77287386 18.11974281 80.16189405 18.94124644 1.39095419-44.30515292 24.74777875-82.16897467 70.07980991-113.60080275l100.37273688-71.37741237 117.80167005-77.36131584a1178.7168438 1178.7168438 0 0 0 34.04570022 22.85272232l-123.79490845 77.94010131z m116.91481942-110.4361486c3.29534685-13.44277669 5.57315167-25.25188362 6.82407694-35.39931344 35.35263628 4.74231312 76.22241343 12.51858639 122.62800001 23.31948491l-11.36101286 35.56734709a712.47652373 712.47652373 0 0 0-118.09106409-23.48751856z"  horiz-adv-x="1442" />

    
    <glyph glyph-name="icon-test7" unicode="&#58909;" d="M1043.318986 438.747944l30.784901-20.81893 11.112564 16.420056-30.784902 20.81893-11.112563-16.420056z m64.533634-59.399212l31.001239-20.970366 19.614648 29.003719-30.482028 20.617014c-8.509296-12.792789-15.222986-22.340507-20.133859-28.650367zM723.578592 889.856H0l1442.253521-1012.671099V390.043042L723.578592 889.856z m332.093295-383.113014l12.136564-8.213634 12.208676 18.057014 10.953915-7.405972-12.208676-18.049802 30.784902-20.826141 12.605295 18.648338 10.946705-7.405972-12.605296-18.641127 11.985127-8.112676-6.807437-10.059718-11.985127 8.112676-46.238648-68.362817 11.840902-8.004507-6.807437-10.06693-78.429746 53.046085 6.807436 10.066929 13.917747-9.410704 46.238648 68.362817-12.136564 8.206423 6.793014 10.059718z m-125.151549 113.115944c1.442254-11.898592 2.329239-25.874028 2.689803-41.933522a130.610479 130.610479 0 0 1-15.316733 0.007212 532.602592 532.602592 0 0 1-0.555267 41.580169l13.182197 0.346141z m-3.454197-79.403268l13.535549 0.555268c1.471099-20.984789 2.401352-37.361577 2.783549-49.123155l-15.309521-0.641803a661.871775 661.871775 0 0 1-1.009577 49.20969z m-6.944451-67.338817a267.876958 267.876958 0 0 1 21.244395-16.095549c6.115155-4.139268 11.458704-2.718648 16.030647 4.247436l39.142761 57.856-63.480789 42.935888 7.312226 10.802479 63.473577-42.935888 19.11707 28.260958 11.985127-8.105465-19.11707-28.260958 25.455774-17.220507-7.312225-10.802478-25.448563 17.220507-41.544113-61.411155c-8.603042-12.727887-19.023324-14.956169-31.253634-6.677634-6.418028 4.341183-13.88169 9.453972-22.390986 15.352789 2.098479 4.196958 4.370028 9.136676 6.785803 14.833577z m-133.595944 42.914254l-78.725408 53.248c-15.100394 10.211155-17.379155 23.112113-6.836282 38.695662l52.05093 76.951436 12.735099-8.610253-13.715831-20.270874 88.489464-59.853521 25.722592 38.025014-106.690704 72.170367 7.405971 10.953915 119.12293-80.578704-46.642479-68.961352-12.432225 8.408338 6.107943 9.028507-88.489464 59.853521-29.133521-43.058479c-6.136789-9.078986-4.918085-16.521014 3.663324-22.326084l72.956394-49.346705c8.480451-5.732958 15.677296-6.144 21.590535-1.233126 5.841127 4.817127 12.619718 11.956282 20.30693 21.417464 2.711437-4.276282 5.949296-8.624676 9.728-13.045183-8.321803-9.324169-15.338366-16.513803-21.064113-21.56169-10.477972-9.151099-22.542423-9.107831-36.150085 0.093747z m132.759437-92.607099l-37.275042 26.50862c-16.83831 11.675042-25.513465 25.737014-26.025465 42.193126-4.240225-0.302873-14.16293-2.646535-29.782535-7.030985l2.199436 16.629183c12.381746 1.831662 22.088113 3.136901 29.155155 3.894084l34.383324 50.825014-17.170028 11.610141 7.211268 10.658254 28.563831-19.318986-43.397409-64.151437c1.312451-13.679775 9.064563-25.506254 23.256338-35.457803l39.301409-27.662422 45.986253-28.946028a432.531831 432.531831 0 0 1-12.641352-8.487662l-43.765183 28.736901z m56.384902-45.467042a116.548507 116.548507 0 0 1-2.545578 13.146141 263.997296 263.997296 0 0 1 43.866141 8.725633l4.225803-13.211042c-17.242141-4.009465-32.42907-6.893972-45.546366-8.660732z m55.995492 1.810028l12.013972 2.44462a434.80338 434.80338 0 0 0 9.021296-28.751324l-13.549972-3.12969a276.436732 276.436732 0 0 1-7.485296 29.436394z m89.513465-71.11031c-7.874704-11.638986-17.328676-13.723042-28.383549-6.252169a363.851718 363.851718 0 0 0-15.980169 11.451493 240.351549 240.351549 0 0 1 5.927662 12.598085c6.735324-5.559887 11.682254-9.417915 14.840789-11.552451 5.422873-3.670535 9.973183-2.790761 13.643718 2.639324l21.020845 31.073352-31.664676 21.424676c-15.69893-20.87662-34.404958-34.390535-56.118085-40.548958a144.686873 144.686873 0 0 1-3.273915 14.285521c14.198986 3.764282 25.71538 9.850592 34.563606 18.244507 8.776113 7.874704 21.100169 23.544789 36.97938 47.024676l37.238986 55.043606 52.382648-35.428958-81.17724-120.002704z m-29.558986 135.160789l11.105352 16.427267-30.784901 20.81893-11.112563-16.427268 30.792112-20.818929z m-65.918197-31.11662l30.784902-20.81893 11.213521 16.571493-30.784902 20.81893-11.213521-16.571493z m139.372169-15.554704l19.520902 28.852282-30.482029 20.617014-19.520901-28.852282 30.482028-20.617014zM723.614648 889.856H0l1442.253521-1012.728789V390.107944z"  horiz-adv-x="1442" />

    
    <glyph glyph-name="xuanzhong1" unicode="&#58897;" d="M1303.978823 862.927412a109.746634 109.746634 0 0 1-157.040262 0L440.529706 144.627069l-243.276244 247.179557-163.394492-153.409274 327.878281-333.324764a109.746634 109.746634 0 0 1 157.040262 0l785.01976 798.182095a114.194595 114.194595 0 0 1 0.18155 159.672729zM111.87984 318.986502m-79.0789-79.0789a111.834452 111.834452 0 1 1 158.157799 158.1578 111.834452 111.834452 0 1 1-158.157799-158.1578Z"  horiz-adv-x="1336" />

    
    <glyph glyph-name="sanjiaoxing" unicode="&#58881;" d="M1024 896v-1024H0z"  horiz-adv-x="1024" />

    
    <glyph glyph-name="times-circle" unicode="&#59427;" d="M595.392 391.04l158.4-158.336-90.496-90.496-158.4 158.4-158.4-158.4L256 232.704l158.4 158.4L256 549.504 346.496 640 504.96 481.6 663.296 640l90.496-90.496L595.392 391.04zM512-128A512 512 0 1 0 512 896a512 512 0 0 0 0-1024z m3.008 92.992a416 416 0 1 1 0 832 416 416 0 0 1 0-832z"  horiz-adv-x="1024" />

    
    <glyph glyph-name="check-circle" unicode="&#59428;" d="M512-128A512 512 0 1 0 512 896a512 512 0 0 0 0-1024z m3.008 92.992a416 416 0 1 1 0 832 416 416 0 0 1 0-832zM448 290.88L746.688 576 832 494.528 448 128 192 372.352l85.312 81.472L448 290.88z"  horiz-adv-x="1024" />

    
    <glyph glyph-name="youhuijuan-xianxing" unicode="&#59544;" d="M948.90666667 675.27111111v-129.25155556c-45.51111111-40.96-72.81777778-100.12444445-72.81777778-162.92977777 0-62.80533333 27.30666667-121.96977778 72.81777778-162.92977778v-127.43111111H75.09333333V221.07022222c45.51111111 40.96 72.81777778 100.12444445 72.81777778 162.92977778 0 62.80533333-27.30666667 121.96977778-72.81777778 162.92977778V675.27111111h873.81333334m36.40888888 72.81777778H38.68444445c-20.02488889 0-36.40888889-16.384-36.4088889-36.40888889v-202.97955555c43.69066667-25.48622222 72.81777778-71.90755555 72.81777778-125.61066667s-29.12711111-101.03466667-72.81777778-125.61066667V56.32000000000005c0-20.02488889 16.384-36.40888889 36.4088889-36.40888889h946.6311111c20.02488889 0 36.40888889 16.384 36.4088889 36.40888889V257.47911110999996c-43.69066667 25.48622222-72.81777778 71.90755555-72.81777778 125.61066667s29.12711111 101.03466667 72.81777778 125.61066667V711.6800000000001c0 20.02488889-16.384 36.40888889-36.4088889 36.40888889zM657.63555555 456.81777778v-72.81777778H548.40888889v-72.81777778h109.22666666v-72.81777777H548.40888889v-109.22666667h-72.81777778V238.36444444999995H366.36444445v72.81777777h109.22666666v72.81777778H366.36444445v72.81777778h108.31644444L351.80088889 578.78755555l51.88266666 51.88266667 109.22666667-109.22666667L621.22666667 629.76l51.88266666-51.88266667L552.04977778 456.81777778H657.63555555z"  horiz-adv-x="1024" />

    
    <glyph glyph-name="ziliaoshouce" unicode="&#59545;" d="M896 704v-704H256.8c-71.2 0-128.8 57.6-128.8 128.8V639.2C128 710.4 185.6 768 256.8 768H768v-512H257.6c-36 0-65.6-29.6-65.6-65.6v-60.8c0-36 29.6-65.6 65.6-65.6H832V704h64zM768 192H256v-64h512v64z"  horiz-adv-x="1024" />

    
    <glyph glyph-name="ziliaoshouce-xianxing" unicode="&#59546;" d="M704 704v-384H257.6c-24 0-46.4-6.4-65.6-17.6V639.2c0 36 28.8 64.8 64.8 64.8H704m64 64H256.8C185.6 768 128 710.4 128 639.2v-510.4c0-71.2 57.6-128.8 128.8-128.8H896V704h-64v-640H257.6c-36 0-65.6 29.6-65.6 65.6v60.8c0 36 29.6 65.6 65.6 65.6H768V768z m0-576H256v-64h512v64z"  horiz-adv-x="1024" />

    
    <glyph glyph-name="youhuijuan" unicode="&#59547;" d="M960 494.4V672c0 17.6-14.4 32-32 32H96c-17.6 0-32-14.4-32-32v-178.4c38.4-22.4 64-63.2 64-110.4s-25.6-88.8-64-110.4V96c0-17.6 14.4-32 32-32h832c17.6 0 32 14.4 32 32V272.8c-38.4 22.4-64 63.2-64 110.4s25.6 88.8 64 111.2z m-320-47.2v-64H544v-64h96v-64H544v-96h-64v96H384v64h96v64H384v64h95.2L371.2 554.4l45.6 45.6 96-96L608 599.2l45.6-45.6-106.4-106.4H640z"  horiz-adv-x="1024" />

    
    <glyph glyph-name="tijikongjian" unicode="&#59551;" d="M496 0.8L138.4 124.8c-6.4 2.4-10.4 8-10.4 15.2V608.8l368-112v-496z m32 0l357.6 124c6.4 2.4 10.4 8 10.4 15.2V608.8l-368-112v-496z m-400 640l384-112 384 112-379.2 125.6c-3.2 0.8-7.2 0.8-10.4 0L128 640.8z"  horiz-adv-x="1024" />

    
    <glyph glyph-name="tijikongjian-xianxing" unicode="&#59552;" d="M884.8 643.2L517.6 765.6c-1.6 0.8-3.2 0.8-4.8 0.8-1.6 0-3.2 0-4.8-0.8L139.2 641.6c-6.4-2.4-11.2-8-11.2-15.2v-486.4c0-7.2 4.8-12.8 11.2-15.2l368.8-122.4c1.6-0.8 3.2-0.8 4.8-0.8 1.6 0 3.2 0 4.8 0.8l367.2 122.4c6.4 2.4 11.2 8 11.2 15.2v488c0 7.2-4.8 12.8-11.2 15.2z m-372 56.8l269.6-89.6L512 512 244 609.6l268.8 90.4zM192 592l3.2 0.8L496 484v-410.4L192 174.4V592z m640-417.6l-304-101.6V484l303.2 109.6h0.8v-419.2z"  horiz-adv-x="1024" />

    
    <glyph glyph-name="shezhi-xianxing" unicode="&#59575;" d="M593.92 793.6l12.8-88.74666667 5.12-36.69333333 33.28-15.36c13.65333333-6.82666667 28.16-14.50666667 40.96-23.04l29.86666667-19.62666667 33.28 12.8 87.04 34.13333334 81.06666666-135.68-71.68-54.61333334-29.86666666-23.04 3.41333333-37.54666666c0.85333333-7.68 0.85333333-15.36 0.85333333-22.18666667s0-14.50666667-0.85333333-22.18666667l-3.41333333-37.54666666 29.86666666-23.04 71.68-54.61333334-80.21333333-135.68-87.89333333 34.13333334-33.28 12.8-29.86666667-19.62666667c-13.65333333-9.38666667-27.30666667-17.06666667-40.96-23.04l-33.28-15.36-5.12-35.84-12.8-89.6H430.08l-12.8 88.74666667-5.12 36.69333333-33.28 15.36c-13.65333333 6.82666667-28.16 14.50666667-40.96 23.04l-29.86666667 19.62666667-33.28-12.8L187.73333333 110.93333332999998l-81.06666666 135.68 71.68 54.61333334 29.86666666 23.04-3.41333333 37.54666666c-0.85333333 7.68-0.85333333 15.36-0.85333333 22.18666667s0 14.50666667 0.85333333 22.18666667l3.41333333 37.54666666-29.86666666 23.04-71.68 54.61333334L186.88 657.06666667l87.89333333-34.13333334 33.28-12.8 29.86666667 19.62666667c13.65333333 9.38666667 27.30666667 17.06666667 40.96 23.04l33.28 15.36 5.12 35.84L430.08 793.6h163.84m9.38666667 68.26666667H420.69333333c-29.01333333 0-52.90666667-20.48-57.17333333-47.78666667L349.86666667 715.09333333c-17.06666667-7.68-33.28-17.06666667-50.34666667-28.16l-96.42666667 37.54666667c-6.82666667 2.56-13.65333333 3.41333333-20.48 3.41333333-20.48 0-40.10666667-10.24-49.49333333-28.16L41.81333333 546.13333333c-14.50666667-23.89333333-8.53333333-55.46666667 13.65333334-72.53333333l81.06666666-61.44c-0.85333333-10.24-1.70666667-19.62666667-1.70666666-28.16s0-17.92 1.70666666-28.16l-81.06666666-61.44c-22.18666667-17.06666667-28.16-46.93333333-13.65333334-72.53333333l90.45333334-152.74666667c10.24-17.92 29.86666667-29.01333333 50.34666666-29.01333333 6.82666667 0 12.8 0.85333333 19.62666667 3.41333333L298.66666667 81.06666667000002c16.21333333-11.09333333 33.28-20.48 50.34666666-28.16l14.50666667-98.13333334c3.41333333-27.30666667 28.16-48.64 57.17333333-48.64h182.61333334c29.01333333 0 52.90666667 20.48 57.17333333 47.78666667l14.50666667 98.98666667c17.06666667 7.68 33.28 17.06666667 50.34666666 28.16l96.42666667-37.54666667c6.82666667-2.56 13.65333333-3.41333333 20.48-3.41333333 20.48 0 40.10666667 10.24 49.49333333 28.16l91.30666667 154.45333333c13.65333333 24.74666667 7.68 54.61333333-14.50666667 71.68l-81.06666666 61.44c0.85333333 8.53333333 1.70666667 17.92 1.70666666 28.16 0 10.24-0.85333333 19.62666667-1.70666666 28.16l81.06666666 61.44c22.18666667 17.06666667 28.16 46.93333333 13.65333334 72.53333333l-90.45333334 152.74666667c-10.24 17.92-29.86666667 29.01333333-50.34666666 29.01333333-6.82666667 0-12.8-0.85333333-19.62666667-3.41333333L725.33333333 686.93333333c-16.21333333 11.09333333-33.28 20.48-50.34666666 28.16l-14.50666667 98.13333334c-4.26666667 28.16-28.16 48.64-57.17333333 48.64zM512 520.53333333c75.09333333 0 136.53333333-61.44 136.53333333-136.53333333s-61.44-136.53333333-136.53333333-136.53333333-136.53333333 61.44-136.53333333 136.53333333 61.44 136.53333333 136.53333333 136.53333333m0 68.26666667c-112.64 0-204.8-92.16-204.8-204.8s92.16-204.8 204.8-204.8 204.8 92.16 204.8 204.8-92.16 204.8-204.8 204.8z"  horiz-adv-x="1024" />

    
    <glyph glyph-name="shezhi1" unicode="&#59576;" d="M940 300l-76 57.6c0.8 8 1.6 16.8 1.6 26.4s-0.8 18.4-1.6 26.4l76 57.6c20.8 16 26.4 44 12.8 68l-84.8 143.2c-9.6 16.8-28 27.2-47.2 27.2-6.4 0-12-0.8-18.4-3.2L712 668c-15.2 10.4-31.2 19.2-47.2 26.4l-13.6 92c-4 26.4-26.4 45.6-53.6 45.6H426.4c-27.2 0-49.6-19.2-53.6-44.8L360 694.4c-16-7.2-31.2-16-47.2-26.4l-90.4 35.2c-6.4 2.4-12.8 3.2-19.2 3.2-19.2 0-37.6-9.6-46.4-26.4L71.2 536c-13.6-22.4-8-52 12.8-68l76-57.6c-0.8-9.6-1.6-18.4-1.6-26.4s0-16.8 1.6-26.4l-76-57.6c-20.8-16-26.4-44-12.8-68l84.8-143.2c9.6-16.8 28-27.2 47.2-27.2 6.4 0 12 0.8 18.4 3.2L312 100c15.2-10.4 31.2-19.2 47.2-26.4l13.6-92c3.2-25.6 26.4-45.6 53.6-45.6h171.2c27.2 0 49.6 19.2 53.6 44.8l13.6 92.8c16 7.2 31.2 16 47.2 26.4l90.4-35.2c6.4-2.4 12.8-3.2 19.2-3.2 19.2 0 37.6 9.6 46.4 26.4l85.6 144.8c12.8 23.2 7.2 51.2-13.6 67.2zM704 384c0-105.6-86.4-192-192-192S320 278.4 320 384s86.4 192 192 192 192-86.4 192-192z"  horiz-adv-x="1024" />

    
    <glyph glyph-name="shouye" unicode="&#59577;" d="M919.2 476.8L531.2 754.4c-11.2 8-26.4 8-36.8 0L104 476.8c-12.8-8.8-6.4-28.8 9.6-28.8H192v-432c0-8.8 7.2-16 16-16h192c8.8 0 16 7.2 16 16V256h192v-240c0-8.8 7.2-16 16-16h192c8.8 0 16 7.2 16 16V448h78.4c15.2 0 21.6 20 8.8 28.8z"  horiz-adv-x="1024" />

    
    <glyph glyph-name="shouye-xianxing" unicode="&#59578;" d="M512.8 689.6L768 506.4V64H640V320H384v-256H256V506.4l256.8 183.2m0 71.2c-6.4 0-12.8-1.6-18.4-5.6L104 476.8c-12.8-8.8-6.4-28.8 9.6-28.8H192v-432c0-8.8 7.2-16 16-16h224c8.8 0 16 7.2 16 16V256h128v-240c0-8.8 7.2-16 16-16h224c8.8 0 16 7.2 16 16V448h78.4c15.2 0 21.6 20 9.6 28.8L531.2 754.4c-5.6 4-12 6.4-18.4 6.4z"  horiz-adv-x="1024" />

    
    <glyph glyph-name="sousuo" unicode="&#59579;" d="M704 268.8h-40.8l-14.4 14.4c50.4 58.4 80 133.6 80 216C728.8 683.2 580 832 396 832S64.8 682.4 64.8 499.2s148.8-332.8 332.8-332.8c82.4 0 158.4 30.4 216 80l14.4-14.4v-40l256-255.2 76 76c-0.8 0-256 256-256 256z m-307.2 0c-127.2 0-230.4 103.2-230.4 230.4s103.2 230.4 230.4 230.4 230.4-103.2 230.4-230.4-103.2-230.4-230.4-230.4z"  horiz-adv-x="1024" />

    
    <glyph glyph-name="xihuan-xianxing" unicode="&#59587;" d="M700 704c92.8 0 166.4-72.8 166.4-166.4 0-129.6-133.6-251.2-336.8-435.2l-17.6-16-17.6 16C291.2 286.4 157.6 408 157.6 537.6c0 92.8 72.8 166.4 166.4 166.4 52.8 0 104.8-24 140-64.8l48.8-56.8 48.8 56.8c33.6 40 86.4 64.8 138.4 64.8m0 64c-72.8 0-142.4-33.6-188-87.2C466.4 733.6 396.8 768 324 768c-128.8 0-230.4-100.8-230.4-230.4 0-157.6 142.4-287.2 357.6-482.4L512 0l60.8 55.2c215.2 196 357.6 324.8 357.6 482.4 0 128.8-100.8 230.4-230.4 230.4z"  horiz-adv-x="1024" />

    
    <glyph glyph-name="xihuan" unicode="&#59589;" d="M512 0l-60.8 55.2C236 250.4 93.6 380 93.6 537.6 93.6 666.4 194.4 768 324 768c72.8 0 142.4-33.6 188-87.2C557.6 733.6 627.2 768 700 768c128.8 0 230.4-100.8 230.4-230.4 0-157.6-142.4-287.2-357.6-482.4L512 0z"  horiz-adv-x="1024" />

    
    <glyph glyph-name="shoucang2" unicode="&#59517;" d="M298.41696237-107.06488889000002c-43.59843082-27.08821333-100.59897363-13.07807289-127.07066312 31.00580978-12.54893037 20.90112948-16.44832237 45.93952237-10.87412147 69.70603141l56.41557333 240.58144237c1.36169245 5.80600415-0.57526045 11.86929778-4.87515022 15.61577244L27.3491437 410.74839703c-38.35433718 33.42093275-42.78893985 91.815936-9.99788088 130.75402905 15.81359408 18.77970489 38.38467792 30.47788089 62.77377896 32.46701984l242.3727597 19.76517216c5.27928889 0.43083852 10.00394903 3.92245097 12.1690643 9.21751703l93.3766637 228.36626014c19.45448297 47.57670875 73.56780089 70.28250548 120.77192534 50.3110163 22.48491615-9.51242903 40.28522192-27.61856948 49.56463407-50.3110163l93.3766637-228.36626014c2.16511525-5.29506608 6.88977541-8.78667852 12.1690643-9.21751703l242.37154608-19.76517216c50.83044978-4.14575882 88.4614637-49.09495941 84.43706785-100.14386251-1.92238933-24.38667378-13.27953541-47.06091615-31.66116979-63.07718638L814.41344475 249.84538075c-4.30110341-3.74647467-6.2380563-9.8097683-4.87636386-15.61577245L865.95508148-6.351834080000003c11.67268978-49.77216475-18.64135111-99.92419555-68.1368083-111.93306074-23.83204503-5.78415882-48.95175111-1.736704-69.80797629 11.22121957l-207.50518044 128.92387555c-4.50742045 2.79984355-10.07433955 2.79984355-14.58297363 0l-207.50396682-128.92387555z m263.07849481 194.89799586L768.99821037-41.089554969999995c3.18213689-1.97578903 6.93589333-2.58139022 10.50275081-1.71607228 7.77936592 1.8884077 12.82199703 10.23089778 10.83164445 18.7190234L733.91581867 216.49483852000003c-7.91407882 33.75225363 3.40908563 69.20116148 29.47178192 91.91059911l184.66102993 160.90301629c3.01222875 2.62386725 4.92612267 6.44437333 5.2550163 10.61925926 0.68205985 8.65317925-5.45405155 15.98350222-13.31837157 16.6255123l-242.37154607 19.76517215c-34.57266725 2.81926163-64.56266903 24.98256592-77.75118221 57.23477334l-93.37666372 228.36747378c-1.53888237 3.76225185-4.41033008 6.68345837-7.93349688 8.17379555-7.16284208 3.03043318-15.45314608-0.44904297-18.612224-8.17379555l-93.3766637-228.36626016c-13.18851318-32.25342103-43.17972859-54.41672533-77.75118222-57.23598696L86.43955675 496.55201185c-3.68943408-0.30098015-7.16526933-2.10322015-9.67505542-5.08389452-5.51594667-6.54995911-4.75136-16.61580325 1.61170015-22.16087703l184.66224355-160.9030163c26.0626963-22.70943763 37.38586075-58.15713185 29.4705683-91.91059911L236.09344-24.08660384999996c-0.9624083-4.10449541-0.28884385-8.43472592 1.84471703-11.98701985 4.22100385-7.03055645 12.83777422-9.14834015 19.48967822-5.01593127l207.50396683 128.92387556a91.37538845 91.37538845 0 0 0 96.56486874 0z"  horiz-adv-x="1025" />

    
    <glyph glyph-name="icon-test" unicode="&#58888;" d="M1015.87968 723.59424c-106.45504 51.43552-236.4416 47.42656-342.64064-21.92384-80.44032-52.56704-131.98336-132.70528-150.38464-219.84768-20.04992 74.89024-62.63808 144.52224-126.80192 197.84192C287.4112 769.95584 144.13824 790.92736 19.8144 747.62752 0.00512 617.48224 46.85312 480.45568 155.48416 390.18496c97.6896-81.17248 223.39584-106.27072 338.1504-79.0272v-312.87296h64.11264v381.38368c97.32608-32.18944 207.85664-21.41696 300.35968 38.99392 106.18368 69.38112 162.06336 186.78784 157.7728 304.93184zM491.5968 354.86208c-100.49024-31.11936-218.45504-9.74848-310.20032 66.49344C89.63584 497.62304 47.04256 609.67936 59.21792 714.15808 159.6928 745.2672 277.6576 723.8912 369.40288 647.65952c91.776-76.25728 134.36416-188.37504 122.19392-292.79744z m346.05568 95.1296c-89.68192-58.61376-197.18144-65.50528-283.56096-27.44832-0.13824 94.45376 49.37216 190.0288 139.05408 248.64768 89.70752 58.56768 197.10976 65.53088 283.60704 27.4432 0.1024-94.44864-49.40288-190.0544-139.10016-248.64256z"  horiz-adv-x="1024" />

    
    <glyph glyph-name="gengduo" unicode="&#58904;" d="M485.612919 384.569596a43.222302 43.222302 0 0 1-11.190891 33.505661L93.462667 797.560369a44.495517 44.495517 0 0 1-60.84628 0 44.495517 44.495517 0 0 1 0-60.84628l353.752765-352.144493-353.752765-353.752765a44.495517 44.495517 0 0 1 0-60.846279 44.495517 44.495517 0 0 1 60.84628 0l380.959361 379.418101a42.820234 42.820234 0 0 1 11.190891 35.247955z m0 0M962.398469 384.569596a43.222302 43.222302 0 0 1-11.19089 33.505661L570.114195 797.560369a44.495517 44.495517 0 0 1-60.84628 0 44.495517 44.495517 0 0 1 0-60.84628l353.752765-352.144493-353.551731-353.752765a43.021268 43.021268 0 0 1 60.645246-60.779268l380.959361 379.35109a42.820234 42.820234 0 0 1 11.190891 35.247955z m0 0"  horiz-adv-x="1024" />

    
    <glyph glyph-name="yishiyong4" unicode="&#58923;" d="M322.1504 529.3056a241.7664 241.7664 0 0 0 203.9808 86.2208l26.7264 18.7392a267.008 267.008 0 0 1-246.784-90.9312 251.392 251.392 0 0 1-56.832-120.3712l26.7776 18.7392c8.704 32.0512 24.7296 62.1568 46.1312 87.552z m92.9792 133.0688l22.016 3.9936-12.6464 17.408 3.9936 22.016-21.4016-7.3216-20.0704 9.3696v-22.0672l-15.36-16.0768 20.736-6.656 10.0352-19.4048 12.6976 18.7392zM187.7504 465.1008l-20.736-5.376 14.0288-17.408-1.3312-22.6816 19.4048 8.704 20.0704-8.704-2.048 22.7328 13.4144 17.408-20.0704 5.3248-11.3664 19.3536c-0.6656 0-11.3664-19.3536-11.3664-19.3536z m82.944 145.1008l-21.4016 0.6656 8.704-20.736-8.0384-20.736 21.4016 2.6624 16.6912-14.0288 4.7104 22.0672 18.688 12.6976-18.688 11.3664-5.376 21.4016-16.6912-15.36z m257.4336 96.256l-22.016-5.9904 14.6432-16.0256-1.3312-21.4016 21.4016 9.3696 20.736-8.0384-1.9968 21.4016 14.0288 17.408-22.016 3.9936-12.0832 18.0224-11.3664-18.688z m278.8864 79.616L18.5344 236.3904a42.1376 42.1376 0 0 1-9.984-59.5456l148.48-211.3024a43.6224 43.6224 0 0 1 60.16-10.7008L1005.568 503.8592a42.1376 42.1376 0 0 1 10.0352 59.5456l-148.48 211.968c-14.0288 18.7392-40.8064 24.064-60.16 10.752z m48.7936-32.1024l136.448-193.9456c10.0352-14.6944 6.656-34.7648-8.0384-44.8L213.1456-21.76a32.1536 32.1536 0 0 0-44.8 8.0384L31.9488 180.224a32.1536 32.1536 0 0 0 7.9872 44.8L810.3424 762.0096a33.0752 33.0752 0 0 0 45.4656-8.0384zM215.1424 619.5712c113.664 136.3968 303.616 172.544 458.752 99.6352l20.0704 14.0288C528.128 816.8448 322.1504 780.8 199.168 633.6a399.0016 399.0016 0 0 1-91.648-308.9408l20.0704 14.0288a378.9312 378.9312 0 0 0 87.6032 280.8832z m533.6576-320.3584a241.7664 241.7664 0 0 0-250.7776-174.5408l-26.7264-18.688a267.008 267.008 0 0 1 246.784 90.9312 265.1136 265.1136 0 0 1 57.4976 120.3712l-26.7776-18.0736z m-112.9984-203.9296l-22.0672-4.0448 12.6976-17.408-3.328-22.016 20.736 7.3728 19.3536-9.3696 0.7168 22.016 15.36 16.0768-20.736 6.656-10.0352 19.456c0.6656-1.3824-12.6976-18.7392-12.6976-18.7392z m135.7312 57.4976l21.4016-1.3312-8.704 20.736 8.0384 20.736-21.4016-2.048-16.6912 14.08-4.7104-22.0672-18.0224-12.6976 18.688-11.3664 5.376-21.4016c-0.6656 0.6656 16.0256 15.36 16.0256 15.36z m-277.504-119.7056l22.0672 3.9936-13.3632 16.7424 2.6624 21.4016-20.736-7.3728-20.0704 8.704 0.6656-21.4016-15.36-16.0256 21.4016-6.0416 10.7008-18.7392 12.032 18.7392z m315.648 88.2688c-114.3808-136.3968-303.616-172.544-458.752-99.6352l-20.0704-14.0288c165.888-83.6096 371.8144-47.5136 494.848 99.6352a401.1008 401.1008 0 0 1 90.9824 308.9408l-20.0704-14.0288a381.2352 381.2352 0 0 0-86.9376-280.8832z m38.0928 168.5504l20.736 5.3248-14.0288 17.408 1.3312 22.016-19.4048-8.704-20.0704 8.704 2.048-22.016-13.4144-17.408 20.736-5.3248 11.3664-18.7392c-0.6656 0.6656 10.752 18.7392 10.752 18.7392zM399.0528 273.8176c14.08 2.6624 25.4464 6.0416 35.4816 8.704 7.3216-16.7424 12.6976-29.44 16.0256-38.144a32.256 32.256 0 0 0-0.6656-26.0608c-3.9936-8.0384-11.3664-16.0256-22.7328-24.064l-78.8992-54.8352c-26.112-18.0736-48.128-13.3632-67.584 14.0288l-54.784 77.568 26.7264 18.7392 12.032-17.408 88.9344 60.8768-26.7264 38.0928-120.3712-82.944-17.408 24.7808 147.1488 102.2976 61.4912-88.2688-114.9952-80.2304 22.7328-32.768c8.704-12.032 18.688-14.6944 30.0544-6.656l68.2496 47.4624a51.0976 51.0976 0 0 1 12.032 12.032c1.9968 3.9936 1.9968 8.704 0 14.0288a2159.616 2159.616 0 0 1-16.7424 32.768z m-10.0352 149.8112l28.1088 10.7008c5.9904-16.0768 10.7008-32.1024 14.6944-48.128l92.9792-134.4512-22.7328-16.0256-58.88 84.224c1.3312-10.7008 2.048-21.4016 2.7136-32.768a1263.1552 1263.1552 0 0 1-30.1056 30.7712c-2.6624 35.4304-12.032 70.2464-26.7776 105.6768z m116.3776-105.6768l6.656 22.7328-17.3568-12.032-42.8032 61.5424 44.1344 30.72-10.0352 14.08-49.4592-34.816-14.7456 20.7872 49.5104 34.7648-10.752 17.408 24.1152 16.6912 12.032-17.408 52.1728 36.1472 14.6944-20.736-52.1216-36.1472 9.3184-13.312 44.8512 31.3856 48.128-68.864-23.3984-16.0768-5.376 6.656-22.016-15.36c7.9872-12.6976 12.6464-24.064 14.6944-33.4336a248.3712 248.3712 0 0 1 67.5328 32.768c1.9968-15.36 3.9936-27.392 5.3248-35.4304a230.912 230.912 0 0 0-75.5712-27.392c-5.3248-13.4144-15.36-30.1056-31.3856-50.176a342.4256 342.4256 0 0 1-28.16 11.3664c13.4144 14.7456 22.784 26.7776 28.16 36.8128a226.304 226.304 0 0 0-38.144 7.3216z m-1.3312 47.5136l21.4016 14.6944-14.6944 20.736-21.4016-14.7456 14.6944-20.6848z m44.8-27.4432a93.2864 93.2864 0 0 1-9.3696 22.0672l-25.3952-18.0736c10.0352-3.9936 22.016-5.3248 34.7648-3.9936z m22.0672 73.5744l-14.6944 20.736-21.4016-14.7456 14.6944-20.736 21.4016 14.7456z m248.7808 87.552c5.3248-7.9872 8.0384-14.6944 7.3216-21.3504-0.6656-6.656-3.9936-12.6976-10.7008-18.7392-6.656-5.9904-16.0256-12.6976-28.0576-20.736-8.704 8.0384-17.408 14.7456-25.3952 21.4016 12.6976 8.0384 20.0192 12.032 21.4016 13.3632 7.3216 5.376 8.704 11.3664 3.9936 19.456l-11.3664 16.6912-38.144-26.112 35.4816-50.7904-25.4464-18.0736-35.4304 50.8416-39.424-27.4432c16.6912-28.0576 24.7296-50.176 23.3984-66.8672-11.3664 0-22.7328 0-34.1504-1.3312 0.7168 20.0704-11.3664 47.4624-35.4304 80.896L568.32 535.9616l153.088 106.3424 98.304-143.104z m-194.6112 8.0896l38.8096 26.7264-16.0768 22.7328-38.7584-26.7264 16.0256-22.7328z m31.4368-46.1824l38.7584 26.7776-15.36 22.7328-38.8096-26.7776 15.36-22.7328z m54.784 139.776l-38.0928-26.112 15.36-22.6816 38.144 26.0608-15.36 22.7328z m10.0864-94.976l38.0928 26.112-15.36 22.7328-38.144-26.112 15.36-22.7328z"  horiz-adv-x="1024" />

    
    <glyph glyph-name="yishixiao1" unicode="&#58947;" d="M401.75 550.05c54.45 65.25 135 96.3 214.2 90.9l27.9 19.35c-94.5 15.3-193.95-18-259.65-95.85-30.6-36-51.3-79.65-59.85-126.45l27.9 19.35c9.9 34.2 26.55 65.7 49.5 92.7z m97.65 139.5l22.95 4.5-13.5 18.45 4.05 22.95-22.05-7.65-20.7 9.9-0.45-23.4-16.2-17.1 22.05-6.75 10.35-20.25 13.5 19.35zM260.45 482.1l-22.05-5.85 14.85-18-1.35-23.85 20.7 9.45 21.15-9-2.25 23.85 14.4 18.45-22.05 5.4-12.15 20.25-11.25-20.7z m87.3 153l-22.5 0.9 9-21.6-8.55-22.05 22.5 2.7 17.55-14.85 4.95 22.95 19.35 13.05-19.35 11.7-5.4 22.95-17.55-15.75z m270.45 101.25l-22.95-6.3 15.75-16.65-1.35-22.5 21.6 9.45 22.05-8.1-2.25 22.5 14.85 18-22.95 4.5-12.6 18.9-12.15-19.8z m293.4 83.25L82.7 242.25c-20.25-13.95-25.2-42.3-10.8-62.55l156.15-222.3c14.4-20.25 42.75-25.65 63-11.25L1119.95 523.5c20.25 14.4 25.2 42.3 10.8 62.55L974.6 808.35c-14.4 20.25-42.75 25.65-63 11.25z m50.85-33.3L1106 582.45c10.8-15.3 7.2-36.45-8.1-46.8L287-29.100000000000023c-15.3-10.8-36.45-6.75-47.25 8.55L96.65 182.85000000000002c-10.8 15.3-7.2 36.45 8.1 46.8L915.2 794.85c15.3 10.35 36.45 6.75 47.25-8.55zM288.8 645c120.15 143.1 319.5 181.35 482.4 104.4l21.15 14.85C618.2 852.45 401.3 814.2 271.7 659.4c-78.75-93.6-109.8-211.5-95.85-324.9l21.15 14.85C187.1 452.85 217.25 559.5 288.8 645z m561.6-337.05c-9.9-34.2-27-65.7-49.5-92.7-54.45-65.25-135-96.3-214.2-90.9l-27.9-19.35c94.5-15.3 193.95 18 259.65 95.85 30.6 36.45 51.3 80.1 60.3 126.9l-28.35-19.8z m-118.8-214.65l-22.95-4.05 13.5-18.45-3.6-22.95 22.05 7.65 20.25-9.9 0.45 22.95 16.2 16.65-21.6 6.75-10.35 20.25-13.95-18.9z m142.2 60.75l22.5-1.35-9 21.6 8.1 22.05-22.5-2.25-17.55 14.85-4.95-22.95-18.9-13.05 19.35-11.7 5.85-22.5 17.1 15.3zM582.2 28.5l23.4 4.5-14.4 17.55 3.15 22.5-22.05-7.65-21.15 9.45 0.45-22.5-16.2-16.65 22.5-6.3 11.25-19.8 13.05 18.9z m331.65 92.25c-120.15-143.1-319.5-181.35-482.4-104.85l-21.15-14.85c174.15-88.2 391.05-49.95 520.65 104.85 78.75 93.6 109.8 211.5 95.85 324.9l-21.15-14.85c9.45-103.05-20.25-209.7-91.8-295.2z m40.5 177.75l21.6 5.85-14.85 18 1.35 23.4-20.7-9-21.15 9 2.25-23.4-14.4-18 22.05-5.4 12.15-19.8 11.7 19.35zM475.136 268.79999999999995c16.384 3.072 30.208 6.656 41.472 10.24 8.704-19.456 14.848-34.304 18.432-45.056 4.096-10.752 3.584-20.48-1.024-30.208-4.608-9.728-13.312-18.944-26.624-28.16L414.72 111.61599999999999c-30.72-20.992-56.832-15.36-78.848 16.384l-62.976 91.648 31.744 22.016 14.336-20.992L422.4 291.84000000000003l-31.232 45.056-141.312-97.28-19.968 29.184 173.056 119.296 71.68-103.936-135.68-93.184 26.624-38.4c9.728-14.336 21.504-16.896 35.328-7.68L480.768 199.67999999999995c6.656 4.608 11.264 9.216 13.824 14.336 2.56 5.12 2.56 10.24 0 16.384-3.072 6.144-9.216 18.944-19.456 38.4zM522.752 484.352l30.72 20.992c9.216-12.8 17.92-26.112 26.624-39.424l74.24 51.2 18.432-27.136-75.264-51.712c7.168-11.264 13.824-23.04 20.992-34.304l89.088 61.44 18.432-27.136-80.384-55.296c40.96-14.336 80.384-13.824 117.76 1.536-1.536-14.848-3.072-29.696-3.584-45.568-44.032-9.728-86.528-4.608-127.488 14.848 5.632-36.864-5.12-79.36-33.28-127.488-14.848 4.096-29.184 8.192-41.984 11.264 32.768 48.128 45.568 85.504 39.936 112.128l-78.848-54.272-18.432 27.136 87.04 59.904c-6.144 11.776-12.8 23.552-19.968 34.816l-44.032-30.208c2.56-12.288 4.096-24.576 5.12-36.352-15.36-1.024-27.136-2.56-36.352-4.096-2.048 33.28-9.216 64-20.992 93.184l32.768 14.336c4.096-11.264 7.68-22.528 10.752-33.28l34.304 23.552c-7.68 13.312-16.384 26.624-25.6 39.936zM669.184 547.328l40.448 28.16c-6.656 5.12-14.336 10.752-22.528 15.872l24.576 26.112c10.752-7.68 19.968-14.848 27.648-21.504l36.352 25.088 18.432-26.624-107.008-73.728-17.92 26.624z m48.128-14.848l32.256 5.12c2.56-26.112 1.536-50.176-2.56-72.192-14.848 3.584-25.6 6.144-32.768 7.168 3.584 19.968 4.608 39.936 3.072 59.904z m42.496-45.568l36.352-6.144c-1.536 12.288-4.096 24.576-8.704 36.352l26.624 9.216c-15.872 6.144-33.792 11.264-53.248 15.872l10.752 29.184c11.264-2.56 22.528-5.12 32.256-7.68-3.584 32.768-11.776 66.048-24.576 99.84l30.72 15.36c4.608-11.776 8.704-23.552 11.776-36.352l61.44 41.984 19.456-28.672-12.288-8.704c21.504-38.912 33.792-74.24 36.864-106.496 19.456-6.144 38.912-7.68 59.392-5.12-0.512-10.24 0-24.064 1.536-40.96-20.992 0-41.472 3.072-61.44 9.728-3.072-23.552-10.24-46.592-21.504-69.632-12.288 4.608-24.064 8.192-36.864 11.264 12.8 24.576 20.48 49.152 23.04 73.728-18.944 10.24-37.376 24.064-54.784 40.96 1.024-8.704 1.536-17.408 2.048-26.624-5.12 2.048-10.24 4.608-16.384 6.656l-4.608-14.336 3.072 1.024c5.632-17.92 9.216-35.84 10.24-53.76 15.36-3.072 28.672-5.632 40.448-8.192l-7.168-34.304c-10.752 3.072-22.016 6.144-33.792 8.704-2.56-23.552-8.704-47.104-19.456-70.656-11.264 5.12-23.552 9.728-36.352 14.336 12.288 21.504 19.456 43.008 22.016 64-13.824 3.072-28.16 5.632-43.52 8.192l6.656 31.232z m129.536 71.68c-3.584 21.504-12.8 45.056-26.624 70.656l-30.72-20.992c18.944-21.504 37.888-37.888 57.344-49.664z"  horiz-adv-x="1234" />

    
    <glyph glyph-name="shijian" unicode="&#59027;" d="M512-15.999999900000034c-113.55000029 2.59999981-207.9500001 41.52499981-283.20000029 116.79999961C153.55000039 176.0499999 114.5999999 270.44999971000004 112.0000001 384c2.59999981 113.55000029 41.52499981 207.9500001 116.79999961 283.20000029C304.0499999 742.44999961 398.44999971 781.4000000999999 512 783.9999999c113.55000029-2.59999981 207.9500001-41.52499981 283.20000029-116.79999961C870.44999961 591.9500001 909.4000001 497.55000029 911.9999999 384c-2.59999981-113.55000029-41.52499981-207.9500001-116.79999961-283.20000029C719.9500001 25.550000390000037 625.55000029-13.400000100000057 512-15.999999900000034z m247.8499998 152.1500001c65.99999971 65.99999971 99.8499999 148.1000001 102.17500049 246.70000019-2.32499971 100.90000019-36.1749999 182.99999971-102.17500049 248.99999941-65.99999971 65.99999971-148.1000001 99.8499999-246.70000019 102.17500049-100.90000019-2.32499971-182.99999971-36.1749999-248.99999941-102.17500049-65.99999971-65.99999971-99.8499999-148.1000001-102.17500049-246.70000019 2.32499971-100.90000019 36.1749999-182.99999971 102.17500049-248.99999941 65.7500001-65.7500001 147.47500019-99.60000029 247.8499998-102.1250004 100.37499961 2.5250001 182.09999971 36.37500029 247.8499998 102.12500039zM512 384h174.9999999a24.99999961 24.99999961 0 0 0 0-50.0000001h-199.99999951a24.99999961 24.99999961 0 0 0-25.00000049 25.00000049V609a24.99999961 24.99999961 0 0 0 50.0000001 0v-225z"  horiz-adv-x="1024" />

    
    <glyph glyph-name="youhuixuanzhonghou" unicode="&#58937;" d="M2.008615 294.47876900000006c0 34.57969199 13.469538 66.99323099 37.888 91.37230799L511.054769 857.048615a129.102769 129.102769 0 0 0 101.297231 37.494154l271.36-20.873846C945.624615 868.824615 997.927385 816.6006150000001 1002.692923 754.688l20.873846-271.36a129.063385 129.063385 0 0 0-37.49415399-101.297231l-471.19753801-471.197538a129.378462 129.378462 0 0 0-182.744615 0l-292.233847 292.273231c-24.418462 24.418462-37.809231 56.832-37.80923 91.33292301zM830.660923 575.527385c0 65.14215399-53.05107701 118.153846-118.153846 118.153846-65.181538 0-118.153846-53.01169201-118.153846-118.153846s52.972308-118.153846 118.153846-118.153847c65.10276899 0 118.153846 53.01169201 118.153846 118.153847z"  horiz-adv-x="1024" />

    
    <glyph glyph-name="zixun" unicode="&#58969;" d="M798.72-46.08H225.28c-57.344 0-102.4 45.056-102.4 102.4V711.68c0 57.344 45.056 102.4 102.4 102.4h573.44c57.344 0 102.4-45.056 102.4-102.4v-655.36c0-57.344-45.056-102.4-102.4-102.4zM225.28 773.12c-34.816 0-61.44-26.624-61.44-61.44v-655.36c0-34.816 26.624-61.44 61.44-61.44h573.44c34.816 0 61.44 26.624 61.44 61.44V711.68c0 34.816-26.624 61.44-61.44 61.44H225.28zM286.72 609.28h450.56c12.288 0 20.48-8.192 20.48-20.48s-8.192-20.48-20.48-20.48H286.72c-12.288 0-20.48 8.192-20.48 20.48s8.192 20.48 20.48 20.48z m0-204.8h450.56c12.288 0 20.48-8.192 20.48-20.48s-8.192-20.48-20.48-20.48H286.72c-12.288 0-20.48 8.192-20.48 20.48s8.192 20.48 20.48 20.48z m0-204.8h286.72c12.288 0 20.48-8.192 20.48-20.48s-8.192-20.48-20.48-20.48H286.72c-12.288 0-20.48 8.192-20.48 20.48s8.192 20.48 20.48 20.48z"  horiz-adv-x="1024" />

    
    <glyph glyph-name="wenzhang" unicode="&#58953;" d="M799.362 848.213H228.01c-78.807 0-142.882-62.928-142.882-140.315v-647.796c0-77.387 64.075-140.315 142.882-140.315h571.392c78.766 0 142.84 62.996 142.84 140.37V707.898c-0.026 77.387-64.115 140.315-142.881 140.315zM280.63 629.583h246.388a32.4 32.4 0 1 0 0-64.772H280.63a32.4 32.4 0 1 0 0 64.772z m466.083-491.206H280.631a32.4 32.4 0 1 0 0 64.798h466.083a32.413 32.413 0 1 0 0-64.798z m0 213.224H280.631a32.4 32.4 0 1 0 0 64.798h466.083a32.4 32.4 0 1 0 0-64.798z m0 0"  horiz-adv-x="1024" />

    
    <glyph glyph-name="book1" unicode="&#58929;" d="M895.99232 767.98208l0-831.98336-671.9968 0c-53.02166 0-96.00832 42.98666-96.00832 96.00832s42.966181 96.00832 96.00832 96.00832l607.99808 0 0 767.98464-639.9872 0c-70.388352 0-127.99744-57.609088-127.99744-127.99744l0-767.98464c0-70.408832 57.609088-127.99744 127.99744-127.99744l767.98464 0 0 895.98208-63.99872 0zM224.056959 63.99616l0 0c-0.02048 0-0.040959 0-0.061439 0-17.673887 0-32.0096-14.335713-32.0096-32.0096s14.335713-32.0096 32.0096-32.0096c0.02048 0 0.040959 0 0.061439 0l0 0 607.875202 0 0 63.99872-607.875202 0z"  horiz-adv-x="1024" />

    
    <glyph glyph-name="tushu" unicode="&#58968;" d="M509.87421742 379.37112589000003h-1.53671031c-0.1929037 0-0.34925235 0.15634863-0.34925234 0.34925235V388.02711233c0 0.1929037 0.15634863 0.34925235 0.34925234 0.34925235h1.53671031c0.1929037 0 0.34925235-0.15634863 0.34925233-0.34925235v-8.30685051c0-0.19278728-0.15634863-0.34913593-0.34925233-0.34913593zM513.11877165 379.37112589000003h-1.53671029c-0.1929037 0-0.34925235 0.15634863-0.34925234 0.34925235V388.02711233c0 0.1929037 0.15634863 0.34925235 0.34925234 0.34925235h1.53671029c0.1929037 0 0.34925235-0.15634863 0.34925235-0.34925235v-8.30685051c0-0.19278728-0.15634863-0.34913593-0.34925235-0.34913593zM517.69886687 379.84133596000004l-1.48280903-0.38417757c-0.18452165-0.04784757-0.37323433 0.06111916-0.42410874 0.24482587L513.56791018 387.72722098c-0.05215502 0.1881306 0.0600714 0.38243132 0.24901693 0.43132666l1.48280901 0.38417755c0.18452165 0.04784757 0.37323433-0.06111916 0.42410876-0.24482588l2.2239225-8.02523671c0.05215502-0.18801418-0.05995498-0.38231489-0.24890052-0.43132664zM272.61-29.610000000000014h-192c-8.84 0-16 7.16-16 16V759.92c0 8.84 7.16 16 16 16h192c8.84 0 16-7.16 16-16v-773.53c0-8.84-7.16-16-16-16z m-176 32h160V743.92h-160v-741.53zM551.3-29.610000000000014h-192c-8.84 0-16 7.16-16 16V759.92c0 8.84 7.16 16 16 16h192c8.84 0 16-7.16 16-16v-773.53c0-8.84-7.16-16-16-16z m-176 32h160V743.92h-160v-741.53zM758.79-29.620000000000005c-7.02 0-13.45 4.66-15.41 11.73L536.32 729.29a15.997 15.997 0 0 0 11.4 19.76L733.19 797.1c8.45 2.19 17.1-2.8 19.43-11.22L959.68 38.700000000000045c1.15-4.13 0.58-8.55-1.56-12.27s-5.69-6.42-9.84-7.49L762.81-29.100000000000023a15.9 15.9 0 0 0-4.02-0.52zM571.51 722.16l198.51-716.33 154.48 40.02-198.52 716.33-154.47-40.02z"  horiz-adv-x="1024" />

    
    <glyph glyph-name="mingshi" unicode="&#59032;" d="M1309.935 565.862v-221.73l46.967-46.967-97.757-101.035-98.85 98.304 67.72 61.167V530.91C941.84 412.945 850.09 376.354 786.193 347.41c-63.351-28.946-109.227-28.4-172.032-4.916S251.53 475.75 102.434 546.748c-99.396 47.513-105.95 77.55 1.639 117.965C244.429 718.233 475.989 803.43 598.869 849.852 671.505 879.342 710.281 895.18 776.91 861.867c119.057-49.152 391.577-151.28 527.018-207.531 117.965-50.79 38.776-67.72 6.008-88.474m-509.542-306.38c69.358 28.399 162.747 75.912 264.328 119.603v-350.072s-131.618-139.81-363.179-139.81c-249.036 0-383.931 139.81-383.931 139.81V355.601c78.643-32.222 167.116-59.528 273.612-96.12 65.536-23.483 149.095-31.675 209.17 0"  horiz-adv-x="1383" />

    
    <glyph glyph-name="my" unicode="&#59275;" d="M800 512c0 160-128 288-288 288s-288-128-288-288c0-108.8 57.6-201.6 147.2-249.6-121.6-48-214.4-153.6-240-288-3.2-16 6.4-35.2 25.6-38.4h6.4c16 0 28.8 9.6 32 25.6 28.8 150.4 160 259.2 313.6 262.4h6.4c156.8 0 284.8 128 284.8 288zM288 512c0 124.8 99.2 224 224 224s224-99.2 224-224c0-121.6-99.2-220.8-220.8-224h-9.6c-121.6 3.2-217.6 102.4-217.6 224zM723.2 220.8c-16 9.6-35.2 6.4-44.8-9.6-9.6-16-6.4-35.2 9.6-44.8 73.6-51.2 124.8-121.6 140.8-204.8 3.2-16 16-25.6 32-25.6h6.4c16 3.2 28.8 19.2 25.6 38.4-19.2 99.2-80 185.6-169.6 246.4z"  horiz-adv-x="1024" />

    
    <glyph glyph-name="myfill" unicode="&#59276;" d="M649.6 262.4c86.4 48 147.2 144 147.2 249.6 0 160-128 288-288 288s-288-128-288-288c0-108.8 57.6-201.6 147.2-249.6-121.6-48-214.4-153.6-240-288-3.2-9.6 0-19.2 6.4-25.6 3.2-9.6 12.8-12.8 22.4-12.8h704c9.6 0 19.2 3.2 25.6 12.8 6.4 6.4 9.6 16 6.4 25.6-25.6 134.4-121.6 240-243.2 288z"  horiz-adv-x="1024" />

    
    <glyph glyph-name="home" unicode="&#59064;" d="M96 416c-9.6 0-19.2 3.2-25.6 12.8-12.8 12.8-9.6 35.2 3.2 44.8l377.6 310.4c35.2 25.6 86.4 25.6 118.4 0l377.6-307.2c12.8-9.6 16-32 3.2-44.8s-32-16-44.8-3.2l-374.4 300.8c-9.6 6.4-28.8 6.4-38.4 0l-377.6-307.2c-6.4-6.4-12.8-6.4-19.2-6.4zM816-32h-208c-19.2 0-32 12.8-32 32v150.4c0 22.4-38.4 44.8-67.2 44.8s-64-19.2-64-44.8v-150.4c0-19.2-12.8-32-32-32h-201.6c-48 0-83.2 35.2-83.2 80v304c0 19.2 12.8 32 32 32s32-12.8 32-32v-304c0-9.6 6.4-16 19.2-16h172.8v118.4c0 64 67.2 108.8 128 108.8s131.2-44.8 131.2-108.8v-118.4h176c9.6 0 16 0 16 19.2v300.8c0 19.2 12.8 32 32 32s32-12.8 32-32v-304c-3.2-48-35.2-80-83.2-80z"  horiz-adv-x="1024" />

    
    <glyph glyph-name="homefill" unicode="&#59067;" d="M947.2 473.6l-374.4 307.2c-32 25.6-86.4 25.6-118.4 0l-377.6-310.4c-12.8-6.4-16-22.4-9.6-35.2 3.2-12.8 16-19.2 28.8-19.2h32v-364.8c0-48 35.2-83.2 83.2-83.2h204.8c19.2 0 32 12.8 32 32v147.2c0 22.4 35.2 44.8 64 44.8s67.2-22.4 67.2-44.8v-147.2c0-19.2 12.8-32 32-32h208c48 0 80 32 80 83.2v364.8h32c12.8 0 25.6 9.6 28.8 22.4 3.2 12.8 0 25.6-12.8 35.2z"  horiz-adv-x="1024" />

    
    <glyph glyph-name="caigou-xianxing" unicode="&#59527;" d="M821.6 640l-78.4-256H342.4L272 640h549.6M216 832H64v-64h104.8l18.4-64 100-361.6c1.6-4.8 4-8.8 7.2-12l-52-83.2c-6.4-5.6-10.4-14.4-10.4-23.2 0-17.6 14.4-32 32-32h568v64H323.2l40 64H768c13.6 0 24.8 8.8 29.6 22.4l97.6 318.4c6.4 20.8-8 43.2-29.6 43.2H252.8l-18.4 64L216 832zM320 64m-64 0a64 64 0 1 1 128 0 64 64 0 1 1-128 0ZM768 64m-64 0a64 64 0 1 1 128 0 64 64 0 1 1-128 0Z"  horiz-adv-x="1024" />

    
    <glyph glyph-name="caigou" unicode="&#59528;" d="M845.93777777 268.51555556000005c15.47377778 0 28.21688889 10.01244445 33.67822222 25.48622223l111.04711112 362.26844444c7.28177778 23.66577778-9.10222222 49.152-33.67822223 49.152H259.75466666l-20.93511111 72.81777778L217.88444444 851.05777779H44.94222221v-72.81777778h119.23911112l20.93511111-72.81777778 113.77777777-411.42044444c1.82044445-5.46133333 4.55111111-10.01244445 8.192-13.65333334l-59.16444444-94.66311111c-7.28177778-6.37155555-11.83288889-16.384-11.83288889-26.39644445 0-20.02488889 16.384-36.40888889 36.40888889-36.40888888h646.25777778v72.81777778H339.85422221l45.51111112 72.81777777H845.93777777zM336.21333333-22.755555550000054m-72.81777778 0a72.81777778 72.81777778 0 1 1 145.63555556 0 72.81777778 72.81777778 0 1 1-145.63555556 0ZM845.93777777-22.755555550000054m-72.81777778 0a72.81777778 72.81777778 0 1 1 145.63555556 0 72.81777778 72.81777778 0 1 1-145.63555556 0Z"  horiz-adv-x="1024" />

    
    <glyph glyph-name="platform" unicode="&#58880;" d="M941.24689297 164.84832918999996V606.79513008c0 0.64999513-0.04999922 1.24999102-0.09999932 1.89998613 0.09999932 1.09999161 0.19999865 2.19998409 0.19999864 3.34997578 0.09999932 11.54991622-6.54995215 22.09984013-16.84987823 27.09980332L529.69987198 830.94350683C521.39993223 834.99347783 511.75000215 834.99347783 503.45006153 831.09350625L103.40295751 639.1948954100001c-5.74995849-2.74997988-10.34992529-7.19994815-13.29990379-12.54990937-4.64996602-5.29996201-7.49994609-12.24991143-7.49994523-19.84985596v-445.44677607c0-12.79990723 7.9999418-23.74982842 19.24986094-28.09979648 1.99998545-1.74998761 4.19996953-3.24997646 6.64995147-4.4499674l394.84714131-191.7486123c4.14997031-1.94998623 8.59993769-3.04997783 13.14990527-3.04997783 4.44996739 0 9.04993418 0.99999316 13.1499044 3.04997783l394.69714277 191.84861162c12.19991133 5.94995713 18.54986573 19.04986231 16.54988027 31.79976943 0.24999785 1.39998955 0.34999717 2.74997988 0.34999805 4.14997033z m-460.19666865-149.99891484l-338.14755265 164.29881094V565.84542627l338.14755265-162.14882607v-388.84718585z m35.34974384 438.79682373L186.10235878 611.9950919l330.29760938 158.3488538L842.34760859 611.9950919 516.39996816 453.64623808z m364.59736085-278.84798086l-338.89754708-164.6488081V399.24663193l338.89754708 164.49880958v-388.94718428z"  horiz-adv-x="1024" />

    
    <glyph glyph-name="pingtai" unicode="&#58886;" d="M907.1 605.4v0.9zM512 411l372.6 207.9L512 834 139.4 618.9zM116.9 606.3v-0.9zM489.5 371.4L116.9 579.3v-430.2L489.5-66zM534.5 371.4V-66l372.6 215.1V579.3z"  horiz-adv-x="1024" />

    
    <glyph glyph-name="sort" unicode="&#58887;" d="M320 384L192 384c-70.4 0-128-57.6-128-128l0-128c0-70.4 57.6-128 128-128l128 0c70.4 0 128 57.6 128 128l0 128C448 326.4 390.4 384 320 384zM384 128c0-35.2-28.8-64-64-64L192 64c-35.2 0-64 28.8-64 64l0 128c0 35.2 28.8 64 64 64l128 0c35.2 0 64-28.8 64-64L384 128zM768 832l-128 0C569.6 832 512 774.4 512 704l0-128c0-70.4 57.6-128 128-128l128 0c70.4 0 128 57.6 128 128L896 704C896 774.4 838.4 832 768 832zM832 576c0-35.2-28.8-64-64-64l-128 0C604.8 512 576 540.8 576 576L576 704c0 35.2 28.8 64 64 64l128 0c35.2 0 64-28.8 64-64L832 576zM768 384l-128 0c-70.4 0-128-57.6-128-128l0-128c0-70.4 57.6-128 128-128l128 0c70.4 0 128 57.6 128 128l0 128C896 326.4 838.4 384 768 384zM832 128c0-35.2-28.8-64-64-64l-128 0c-35.2 0-64 28.8-64 64l0 128c0 35.2 28.8 64 64 64l128 0c35.2 0 64-28.8 64-64L832 128zM320 832L192 832C121.6 832 64 774.4 64 704l0-128c0-70.4 57.6-128 128-128l128 0c70.4 0 128 57.6 128 128L448 704C448 774.4 390.4 832 320 832zM384 576c0-35.2-28.8-64-64-64L192 512C156.8 512 128 540.8 128 576L128 704c0 35.2 28.8 64 64 64l128 0c35.2 0 64-28.8 64-64L384 576z"  horiz-adv-x="1024" />

    
    <glyph glyph-name="rocket_fill" unicode="&#62412;" d="M858.642286 805.851429a36.571429 36.571429 0 0 0 47.067428-40.777143c-16.182857-99.145143-37.705143-180.754286-64.566857-244.790857-27.300571-65.078857-75.849143-143.414857-145.664-235.008a201.142857 201.142857 0 0 1-40.228571-102.473143c-5.083429-52.388571-16.274286-89.892571-33.536-112.475429-62.427429-68.790857-120.411429-113.700571-173.970286-134.747428a18.285714 18.285714 0 0 0-24.905143 18.541714l13.988572 167.771428a18.285714 18.285714 0 0 1-19.858286 19.748572c-29.092571-2.633143-58.368 8.96-87.826286 34.724571-27.465143 24.027429-41.234286 48.274286-41.307428 72.740572a18.285714 18.285714 0 0 1-23.094858 17.590857l-136.521142-37.229714a18.285714 18.285714 0 0 0-21.540572 25.051428c40.594286 91.666286 72.082286 148.699429 94.464 171.081143 20.224 20.224 59.739429 38.893714 118.546286 55.990857a182.857143 182.857143 0 0 1 80.493714 48.566857c79.689143 82.523429 147.437714 140.141714 203.245714 172.854857 55.149714 32.329143 140.214857 66.614857 255.213715 102.838858zM649.142857 438.857143a82.285714 82.285714 0 1 1 0 164.571428 82.285714 82.285714 0 0 1 0-164.571428zM293.833143 180.772571c-15.030857-7.277714-24.283429-33.462857-27.794286-78.573714a18.285714 18.285714 0 0 1 19.748572-19.638857c44.726857 3.766857 70.674286 13.202286 77.860571 28.288 1.353143-6.272 2.066286-12.763429 2.066286-19.419429 0-33.645714-24.374857-58.038857-73.142857-73.142857l-78.756572-7.936a18.285714 18.285714 0 0 0-20.041143 19.876572L201.142857 109.714286c15.104 48.768 39.497143 73.142857 73.142857 73.142857 6.710857 0 13.238857-0.731429 19.547429-2.084572z"  horiz-adv-x="1024" />

    
    </font>
</defs>
</svg>
